Sunday, 20 December 2015

The Sisters Of Mercy - Wake (50p MKV with chapters and 3 soundtracks: Video Tape FLAC transfer, DTS 2.0 Bootleg CD and DTS 2.0 Jenny Audience Recording)










DocSommer and VonOben rip of Wake is of course the best copy avaiablle so far, this version is the same videowise but adds another 2 soundtracks, DTS 2.0 CD Version and DTS 2.0 Audience recording and chapters for all the songs. Thanks to Lee for sending me the files to share here.


Original Info fir Video:

Video Lineage:    Original VHS tape (Channel 5)
         -> JVC SVHS HR-S9400 deck
         -> Cypress Technologies CTB-100G (aka AVT-8710) Timebase corrector
         -> Canopus ADVC-55 dv converter
         -> Avisynth/QTGMC3.01/Neatvideo magic
         -> x264 Level 4.1 / FLAC level 8

This video i 50 progressive frames per second, that means that I can NOT
be burned to a video-DVD without severe quality destruction!

It will however fit on a data-DVD. Get a good media player.

Transfer by DocSommer and VonOben of the MyHeartland forum.


X264 arguments used on pass 2:
x264.exe --bitrate 8500 --stats "statsfile.stats" --preset veryslow --fps 50
--input-res 720x576 --bluray-compat --vbv-maxrate 40000 --vbv-bufsize 30000
--level 4.1 --keyint 50 --open-gop --slices 4 --pic-struct --colorprim "bt470bg"
--transfer "bt470bg" --colormatrix "bt470bg" --sar 12:11 --pass 2 -o pass2.264 source.avi


General
Format                                   : Matroska
Format version                           : Version 4 / Version 2
File size                                : 4.36 GiB
Duration                                 : 57mn 10s
Overall bit rate mode                    : Variable
Overall bit rate                         : 10.9 Mbps
Encoded date                             : UTC 2015-12-20 12:39:19
Writing application                      : mkvmerge v8.5.2 ('Crosses') 32bit
Writing library                          : libebml v1.3.3 + libmatroska v1.4.4
DURATION                                 : 00:56:51.648000000
NUMBER_OF_FRAMES                         : 319841
NUMBER_OF_BYTES                          : 327517184
_STATISTICS_WRITING_APP                  : mkvmerge v8.5.2 ('Crosses') 32bit
_STATISTICS_WRITING_DATE_UTC             : 2015-12-20 12:39:19
_STATISTICS_TAGS                         : BPS DURATION NUMBER_OF_FRAMES NUMBER_OF_BYTES

Video
ID                                       : 1
Format                                   : AVC
Format/Info                              : Advanced Video Codec
Format profile                           : High@L4.1
Format settings, CABAC                   : Yes
Format settings, ReFrames                : 5 frames
Codec ID                                 : V_MPEG4/ISO/AVC
Duration                                 : 57mn 10s
Bit rate mode                            : Variable
Nominal bit rate                         : 8 500 Kbps
Maximum bit rate                         : 40.0 Mbps
Width                                    : 720 pixels
Height                                   : 576 pixels
Display aspect ratio                     : 4:3
Original display aspect ratio            : 4:3
Frame rate mode                          : Constant
Frame rate                               : 50.000 fps
Color space                              : YUV
Chroma subsampling                       : 4:2:0
Bit depth                                : 8 bits
Scan type                                : Progressive
Bits/(Pixel*Frame)                       : 0.410
Writing library                          : x264 core 119 r2106 07efeb4
Encoding settings                        : cabac=1 / ref=6 / deblock=1:0:0 / analyse=0x3:0x133 / me=umh / subme=10 / psy=1 / psy_rd=1.00:0.00 / mixed_ref=1 / me_range=24 / chroma_me=1 / trellis=2 / 8x8dct=1 / cqm=0 / deadzone=21,11 / fast_pskip=1 / chroma_qp_offset=-2 / threads=6 / sliced_threads=0 / slices=4 / nr=0 / decimate=1 / interlaced=0 / bluray_compat=1 / constrained_intra=0 / bframes=3 / b_pyramid=1 / b_adapt=1 / b_bias=0 / direct=3 / weightb=1 / open_gop=1 / weightp=1 / keyint=50 / keyint_min=5 / scenecut=40 / intra_refresh=0 / rc_lookahead=30 / rc=2pass / mbtree=1 / bitrate=8500 / ratetol=1.0 / qcomp=0.60 / qpmin=0 / qpmax=69 / qpstep=4 / cplxblur=20.0 / qblur=0.5 / vbv_maxrate=40000 / vbv_bufsize=30000 / nal_hrd=vbr / ip_ratio=1.40 / aq=1:1.00
Default                                  : Yes
Forced                                   : No
Color range                              : Limited
Color primaries                          : BT.601 PAL
Transfer characteristics                 : BT.470 System B, BT.470 System G
Matrix coefficients                      : BT.601

Audio #1
ID                                       : 2
Format                                   : FLAC
Format/Info                              : Free Lossless Audio Codec
Codec ID                                 : A_FLAC
Duration                                 : 57mn 10s
Bit rate mode                            : Variable
Channel(s)                               : 2 channels
Sampling rate                            : 48.0 KHz
Bit depth                                : 16 bits
Writing library                          : libFLAC 1.2.1 (UTC 2007-09-17)
Default                                  : Yes
Forced                                   : No

Audio #2
ID                                       : 3
Format                                   : DTS
Format/Info                              : Digital Theater Systems
Mode                                     : 16
Format settings, Endianness              : Big
Codec ID                                 : A_DTS
Duration                                 : 57mn 10s
Bit rate mode                            : Constant
Bit rate                                 : 768 Kbps
Channel(s)                               : 2 channels
Channel positions                        : Front: L R
Sampling rate                            : 48.0 KHz
Bit depth                                : 24 bits
Compression mode                         : Lossy
Stream size                              : 314 MiB (7%)
Title                                    : CD Version DTS 2.0 768kbps
Language                                 : English
Default                                  : No
Forced                                   : No

Audio #3
ID                                       : 4
Format                                   : DTS
Format/Info                              : Digital Theater Systems
Mode                                     : 16
Format settings, Endianness              : Big
Codec ID                                 : A_DTS
Duration                                 : 57mn 10s
Bit rate mode                            : Constant
Bit rate                                 : 768 Kbps
Channel(s)                               : 2 channels
Channel positions                        : Front: L R
Sampling rate                            : 48.0 KHz
Bit depth                                : 24 bits
Compression mode                         : Lossy
Stream size                              : 314 MiB (7%)
Title                                    : Audience Version DTS 2.0 768kbps
Language                                 : English
Default                                  : No
Forced                                   : No

Menu
00:00:00.000                             : en:<<Studio Logo>>
00:00:19.000                             : en:1. First And Last And Always
00:04:27.000                             : en:2. Body And Soul
00:08:03.000                             : en:3. Marian
00:13:05.000                             : en:4. No Time To Cry
00:16:59.000                             : en:5. Walk Away
00:20:38.000                             : en:6. Possession
00:25:15.000                             : en:7. Emma
00:31:32.000                             : en:8. Amphetamine Logic
00:35:46.000                             : en:9. A Rock And A Hard Place
00:39:16.000                             : en:10. Floorshow
00:43:09.000                             : en:11. Alice
00:46:37.000                             : en:<<Credits>>
00:47:20.000                             : en:12. Fix
00:50:01.000                             : en:13. Knockin' On Heaven's Door

part7
part6
part5
part4
part3
part2
part1


2 comments:

  1. Fantastic job, the best video and sound so far, profesional work.Thanks a lot for the workers and for the blogger to share it.

    ReplyDelete
  2. utter perfection

    ReplyDelete