Wednesday, 25 May 2016

Echo And The Bunnymen - Daily Live TV Studio, Sweden - 09.11.1987 (MPG)





Thanks to the anonimous collaborator for sending me this video to share here..

Lineage: VHS(1) -> Panasonic NV-HS860 -> EZCAP With Arcsoft Showbiz -> MPEG2


Tracklist:
Lips Like Sugar / Strangers In The Night
Bedbugs and Ballyhoo
Twist and Shout
Walk On The Wild Side

Time: 13.53 min

Format                                   : MPEG-PS
File size                                : 427 MiB
Duration                                 : 13mn 53s
Overall bit rate                         : 4 299 Kbps
Writing library                          : ArcSoft MPEG-2 NTSC

Video
ID                                       : 224 (0xE0)
Format                                   : MPEG Video
Format version                           : Version 2
Format profile                           : Main@Main
Format settings, BVOP                    : Yes
Format settings, Matrix                  : Custom
Format settings, GOP                     : M=3, N=15
Duration                                 : 13mn 53s
Bit rate                                 : 4 096 Kbps
Width                                    : 640 pixels
Height                                   : 480 pixels
Display aspect ratio                     : 4:3
Frame rate                               : 29.970 fps
Standard                                 : NTSC
Color space                              : YUV
Chroma subsampling                       : 4:2:0
Bit depth                                : 8 bits
Scan type                                : Progressive
Compression mode                         : Lossy
Bits/(Pixel*Frame)                       : 0.445
Time code of first frame                 : 00:00:00:00
Time code source                         : Group of pictures header
GOP, Open/Closed                         : Open
Stream size                              : 406 MiB (95%)
Writing library                          : ArcSoft MPEG-2 NTSC
Color primaries                          : BT.470 System M
Transfer characteristics                 : BT.470 System M
Matrix coefficients                      : BT.601

Audio
ID                                       : 192 (0xC0)
Format                                   : MPEG Audio
Format version                           : Version 1
Format profile                           : Layer 2
Duration                                 : 13mn 53s
Bit rate mode                            : Constant
Bit rate                                 : 128 Kbps
Channel(s)                               : 2 channels
Sampling rate                            : 44.1 KHz
Compression mode                         : Lossy
Stream size                              : 12.7 MiB (3%)


ianisonthewildside

1 comment: