Sunday, 28 February 2016

The Sisters Of Mercy - Brixton Ace, London, UK - 29.06.1983 (DVD)









Another upgrade in quality, this time courtesy of  Egg_Crisis. This should be as good as it gets for this video, it's better than the two previous versions I posted.

Tracklist_

01 Kiss The Carpet
02 Alice
03 Anaconda
04 Valentine
05 Jolene
06 Heartland
07 Adrenochrome
08 Gimme Shelter
09 Emma

Length: 34:25

VHS(TDK HS E180, 2nd gen) > LG DVD/VCR combo > DVD-RW disc > TMPGenc DVD author(add chapters & menu,no re-encode) > VIDEO_TS folder

PAL DVD
Menu
Chapters at the start of each track

Video: MPEG2 Video 720x576 (4:3) 25fps 6556kbps
Audio: Dolby AC3 48000Hz 256kbps

Perhaps a little better quality than a few of the other versions I've seen?

Egg_Crisis, Feb 2016.


The Glove - Riverside Studios - 24.10.1983 (MPEG)








Excellent videos of Robert Smith's and Steve Severin's side project. You'll find a couple of member of The Cure era of "The Top" playing as extras in the videos.

Lineage: VHS(0) -> Panasonic NV-HS860 -> EZCAP With Arcsoft Showbiz -> MPEG2

Tracklist:
Orgy
Punish Me With Kisses

Time: 7.32 min

Do Not Sell!
Support the artists by buying official products.
Enjoy.


Format                                   : MPEG-PS
File size                                : 287 MiB
Duration                                 : 7mn 33s
Overall bit rate mode                    : Variable
Overall bit rate                         : 5 318 Kbps
Writing library                          : ArcSoft MPEG-2 PAL

Video
ID                                       : 224 (0xE0)
Format                                   : MPEG Video
Format version                           : Version 2
Format profile                           : Main@Main
Format settings, BVOP                    : Yes
Format settings, Matrix                  : Custom
Format settings, GOP                     : M=3, N=10
Format settings, picture structure       : Frame
Duration                                 : 7mn 33s
Bit rate mode                            : Variable
Bit rate                                 : 4 988 Kbps
Maximum bit rate                         : 7 500 Kbps
Width                                    : 720 pixels
Height                                   : 576 pixels
Display aspect ratio                     : 4:3
Frame rate                               : 25.000 fps
Standard                                 : PAL
Color space                              : YUV
Chroma subsampling                       : 4:2:0
Bit depth                                : 8 bits
Scan type                                : Interlaced
Scan order                               : Top Field First
Compression mode                         : Lossy
Bits/(Pixel*Frame)                       : 0.481
Time code of first frame                 : 00:00:00:00
Time code source                         : Group of pictures header
GOP, Open/Closed                         : Closed
Stream size                              : 269 MiB (94%)
Writing library                          : ArcSoft MPEG-2 PAL
Color primaries                          : BT.601 PAL
Transfer characteristics                 : BT.470 System B, BT.470 System G
Matrix coefficients                      : BT.601

Audio
ID                                       : 192 (0xC0)
Format                                   : MPEG Audio
Format version                           : Version 1
Format profile                           : Layer 2
Duration                                 : 7mn 32s
Bit rate mode                            : Constant
Bit rate                                 : 224 Kbps
Channel(s)                               : 2 channels
Sampling rate                            : 48.0 KHz
Compression mode                         : Lossy
Delay relative to video                  : -29ms
Stream size                              : 12.1 MiB (4%)

The KLF - The Lost Sounds Of Mu Vol. II (Flac)



The last of the audio bootlegs I have of The KLF.  Hope you enjoy this run of post of this great project.
 
Tracklist:

01. 3pm Electro
02. I Gotta CD (7 Edit)
03. Gary In The Tardis Mix
04. Kylie Said To Jason (Kylie On A Trance)
05. So Hard (Pet Shop Boys Vs KLF)
06. It Must Be Obvious (UFO Mix)
07. Policy Of Truth (Trancentral Mix)
08. Justified And Ancient (Demo Mk2)
09. Last Train To Transcendal (Razormaid! Mix)
10. What Time Is Love (January Mix)
11. 3am Eternal (Live At The Brits)
12. K Cera Cera (War Is Over If You Want It)


The Southern Death Cult - TV Performances - 1983 (ProShot DVD)







Excellent DVD, but the last 2 songs from Brixton are from a greater generation recording so they're worse quality than the rest of the DVD, but are much less usual to see than the rest. HUGE Thanks to the anonimous collaborator for sending me these recordings to share here.

Lineage: Bootleg VHS -> Panasonic NV-HS860 -> EZCAP With Arcsoft Showbiz -> MPEG2 -> ULead DVD Movie Factory - > DVD

The Tube - 21 January 1983

01. False Faces
02. Faith
03. Fatman

Brixton Ace, London, UK - 07 March 1983 (broadcast date)

01. Introduction
02. The Girl
03. Moya
04. The Crypt
05. Today

Total Time: 27.34 min



Marc Almond - The White Room - 31.12.1995 (MPEG)








New Years Eve Show. Thanks to the unknown collaborator.

Lineage: VHS(0) -> Panasonic NV-HS860 -> EZCAP With Arcsoft Showbiz -> MPEG2

Tracklist:

01. Tainted Love

Do Not Sell.
Support the Artist by buying Official products
Enjoy.


Format                                   : MPEG-PS
File size                                : 287 MiB
Duration                                 : 7mn 33s
Overall bit rate mode                    : Variable
Overall bit rate                         : 5 318 Kbps
Writing library                          : ArcSoft MPEG-2 PAL

Video
ID                                       : 224 (0xE0)
Format                                   : MPEG Video
Format version                           : Version 2
Format profile                           : Main@Main
Format settings, BVOP                    : Yes
Format settings, Matrix                  : Custom
Format settings, GOP                     : M=3, N=10
Format settings, picture structure       : Frame
Duration                                 : 7mn 33s
Bit rate mode                            : Variable
Bit rate                                 : 4 988 Kbps
Maximum bit rate                         : 7 500 Kbps
Width                                    : 720 pixels
Height                                   : 576 pixels
Display aspect ratio                     : 4:3
Frame rate                               : 25.000 fps
Standard                                 : PAL
Color space                              : YUV
Chroma subsampling                       : 4:2:0
Bit depth                                : 8 bits
Scan type                                : Interlaced
Scan order                               : Top Field First
Compression mode                         : Lossy
Bits/(Pixel*Frame)                       : 0.481
Time code of first frame                 : 00:00:00:00
Time code source                         : Group of pictures header
GOP, Open/Closed                         : Closed
Stream size                              : 269 MiB (94%)
Writing library                          : ArcSoft MPEG-2 PAL
Color primaries                          : BT.601 PAL
Transfer characteristics                 : BT.470 System B, BT.470 System G
Matrix coefficients                      : BT.601

Audio
ID                                       : 192 (0xC0)
Format                                   : MPEG Audio
Format version                           : Version 1
Format profile                           : Layer 2
Duration                                 : 7mn 32s
Bit rate mode                            : Constant
Bit rate                                 : 224 Kbps
Channel(s)                               : 2 channels
Sampling rate                            : 48.0 KHz
Compression mode                         : Lossy
Delay relative to video                  : -29ms
Stream size                              : 12.1 MiB (4%)

The Slits - Clwb Ifor Bach, Cardiff, UK - 09.10.2009 (Flac)



An echo of our flood of slits recordings, that will continue through March. Thanks to Anon for sendig me this recording to share here and to Otalgia for sharing it first.

Audience Recording - Korg Mr1 WSD recording, Downsampled to CD 44.1khz

Setlist -

01 - FM
02 - Newtown
03 - Love und romance
04 - Reject
05 - Partner from Hell
06 - I heard it through the Bassline (Grapevine)
07 - Shoplifting
08 - Fade away
09 - World of grownups
10 - Cry baby
11 - ??
12 - Lazy slam
13 - Earthbeat
14 - Typical girls

A great set though hurried due to impending curfew.

Ari, Tessa and crew on great form and in good spirit - fantastic.

Buy the new CD "Trapped Animal"

Otalgia

RE-UPLOAD: Siouxsie & The Banshees - Poland TV Report - xx.06.1995 (ProShot DVD)






Thanks toi sisteruli for sending this one to share here a long time ago.

Content:
Interview with polish fans
Not Forgotten (live)
Interview with Siouxsie and Budgie (dubbed in polish)
The Rapture (live)
Interview with Siouxsie and Budgie (dubbed in polish)
Nightshift (live)
Interview with Siouxsie and Budgie (dubbed in polish)


Savages - Albert Hall, Manchester, UK - 22.02.2016 (Flac)



Thanks to rbose1 for sharing on Dime.

Set list

Disc 1
01 Intro
02 Sad Person
03 City's Full
04 Slowing Down The World
05 Shut Up
06 She Will
07 Husbands (aborted)
08 Husbands
09 Surrender
10 Evil
11 No
12 When In Love

Disc 2
01 I Need Something New
02 The Answer
03 Hit Me
04 No Face
05 T.I.W.Y.G.
06 Mechanics
07 Adore
08 Fuckers

Band Line-up

Jehnny Beth    - vocals
Gemma Thompson - guitar
Ayse Hassan    - bass
Fay Milton     - drums

Sound Professionals SP-CMC-8 Microphones
Sound Professionals SP-SPSB-11 Mini Battery Module with Bass Roll-Off (16Hz)
Edirol R-09HR  44.1kHz / 16 bit
USB>PC>CD Wave Editor>Trader's Little Helper>FLAC level 8>Dime

Husbands was initially aborted when Jehnny spoted someone collapse in the crowd. She alerted
security and there was a break while she was carried out.

Please do not sell this recording but share freely and enjoy it!

The Pop Group - Weekend Festival, Weekend Festival.Cologne, Germany - 20.11.2015 (Flac)



Excellent FM broadcast A pity it's just 4 songs. Thanks to tomyoungster for sharing it on Dime.

Tracklist:

01 St. Outrageous
02 Citizen Zombie
03 She Is Beyond Good And Evil
04 Shadow Child

Mark Stewart - Gareth Sager - Dan Catsis - Bruce Smith

min  17:37

FM (analog cable) - Audacity - xACT

WDR 3
Open Sounds
2016-02-13

Support the artists by buying their records.

RE-UPLOAD: Massive Attack - NTC Sibamac Arena, Bratislava, Slovakia - 04.11.2009 (MP3 320)


Very good sound, even if a little bassy. Huge Thanks to tomas for sharing his recording here.

Recording on Edirol R-09 HR

1. Bulletproof Love
2. Hartcliffe Star
3. 16 Seeter
4. Risingson
5. Red Light
6. Future Proof
7. Teardrop
8. Psyche
9. Mezzanine
10. Angel
11. Safe From Harm
12. Inertia Creeps
Encore 1
13. Splitting The Atom
14. Unfinished Sympathy
15. Marakesh
Encore 2
16. Karmacoma

Saturday, 20 February 2016

The Sisters Of Mercy - Interview Villa Tempo Belgian TV - 14.04.1985 (MPEG)






Another upgrade in quality from the vaults of the anonimous collaborator.

Format                                   : MPEG-PS
File size                                : 80.2 MiB
Duration                                 : 2mn 36s
Overall bit rate                         : 4 301 Kbps
Writing library                          : ArcSoft MPEG-2 NTSC

Video
ID                                       : 224 (0xE0)
Format                                   : MPEG Video
Format version                           : Version 2
Format profile                           : Main@Main
Format settings, BVOP                    : Yes
Format settings, Matrix                  : Custom
Format settings, GOP                     : M=3, N=15
Duration                                 : 2mn 36s
Bit rate                                 : 4 096 Kbps
Width                                    : 640 pixels
Height                                   : 480 pixels
Display aspect ratio                     : 4:3
Frame rate                               : 29.970 fps
Standard                                 : NTSC
Color space                              : YUV
Chroma subsampling                       : 4:2:0
Bit depth                                : 8 bits
Scan type                                : Progressive
Compression mode                         : Lossy
Bits/(Pixel*Frame)                       : 0.445
Time code of first frame                 : 00:00:00:00
Time code source                         : Group of pictures header
GOP, Open/Closed                         : Open
Stream size                              : 76.2 MiB (95%)
Writing library                          : ArcSoft MPEG-2 NTSC
Color primaries                          : BT.470 System M
Transfer characteristics                 : BT.470 System M
Matrix coefficients                      : BT.601

Audio
ID                                       : 192 (0xC0)
Format                                   : MPEG Audio
Format version                           : Version 1
Format profile                           : Layer 2
Duration                                 : 2mn 36s
Bit rate mode                            : Constant
Bit rate                                 : 128 Kbps
Channel(s)                               : 2 channels
Sampling rate                            : 44.1 KHz
Compression mode                         : Lossy
Stream size                              : 2.38 MiB (3%)

Bauhaus - University of London, London, UK - 31.10.1980 (MPEG)









A rather excellent upgrade on the previously posted version. Still quite dark and full of effects, but now with much more sharpness to the image. Thanks to the anonimous collaborator.

Lineage: Bootleg VHS -> Panasonic NV-HS860 -> EZCAP With Arcsoft Showbiz -> MPEG2

Setlist

01 Bela Lugosi's Dead
02 In The Flat Field
03 Boys
04 A God In An Alcove
05 Dancing
06 Poison Pen
07 Telegram Sam - Do You Wanna Touch Me
08 Dark Entries

ormat                                   : MPEG-PS
File size                                : 1.05 GiB
Duration                                 : 35mn 7s
Overall bit rate                         : 4 299 Kbps
Writing library                          : ArcSoft MPEG-2 NTSC

Video
ID                                       : 224 (0xE0)
Format                                   : MPEG Video
Format version                           : Version 2
Format profile                           : Main@Main
Format settings, BVOP                    : Yes
Format settings, Matrix                  : Custom
Format settings, GOP                     : M=3, N=15
Duration                                 : 35mn 7s
Bit rate                                 : 4 096 Kbps
Width                                    : 640 pixels
Height                                   : 480 pixels
Display aspect ratio                     : 4:3
Frame rate                               : 29.970 fps
Standard                                 : NTSC
Color space                              : YUV
Chroma subsampling                       : 4:2:0
Bit depth                                : 8 bits
Scan type                                : Progressive
Compression mode                         : Lossy
Bits/(Pixel*Frame)                       : 0.445
Time code of first frame                 : 00:00:00:00
Time code source                         : Group of pictures header
GOP, Open/Closed                         : Open
Stream size                              : 1.00 GiB (95%)
Writing library                          : ArcSoft MPEG-2 NTSC
Color primaries                          : BT.470 System M
Transfer characteristics                 : BT.470 System M
Matrix coefficients                      : BT.601

Audio
ID                                       : 192 (0xC0)
Format                                   : MPEG Audio
Format version                           : Version 1
Format profile                           : Layer 2
Duration                                 : 35mn 7s
Bit rate mode                            : Constant
Bit rate                                 : 128 Kbps
Channel(s)                               : 2 channels
Sampling rate                            : 44.1 KHz
Compression mode                         : Lossy
Stream size                              : 32.2 MiB (3%)


The KLF - Arkive Vol 5. (Flac)



Last of the Arkive series.

Tracklist:

01. Intro (Stadium House Trilogy)   
02. 3 A.M. Eternal (Ultimix)   
03. What Time Was Love   
04. Love Trance   
05. What Goes On (Parts 1-3)   
06. Church KLF (From O.S.T. 1989 Movie Edit)   
07. Chill Out (Wolf In The Jungle)   
08. Love Trance (Demo)   
09. E-Train To Trancentral (Ufo Mix)   
10. Lost My Trancentral In Mind   
11. January What Time Is Love   
12. E-Train To Trancentral (Sleepless Mix)   
13. Love Time Kiss   
14. Last Train To Trancentral (808 Bass Vari.)   
15. It´s Grim Up North (Live BBC)   
16. Madrugada Eterna (White Room Trailer)   
17. The Maginifcent


David Bowie and John Cale - Ciarbisstudio, New York, USA - 05.10.1979 (Flac)




Original Info File:

AKA Two Gentlemen In New York.
FL Records - 080284

On October 5, 1979, David Bowie and John Cale went into the Ciarbisstudio, which is located on top of a house or appartment complex in the city of New York.
They recorded some songs there.
Here are some results of these uniQue rehearsals!!

Lineage: 7" > HD > Cleaning Software > CDR > HD > Mind-Warp PaVilion

Side 1: Velvet Couch
Side 2: Piano-la

I purchased this numbered limited edition bootleg single, back in the "old days" from one of them "dodgy" mail order services, I expect some time after 8th February 1984, if the release code is to be believed. ;) In fact, I purchesed 3 copies, expecting that one day they'll have some value, considering it was limited to 500 copies. I received Numbers 298, 302, and 303. I guess the "inner Circle" got the important numbers. :lol:

In any case, my copies have had very limited airings over the last 25 years, and so this vinyl rip is probably as good as it gets.


Uploaded to Mind-Warp PaVilion by GoblinKing, 3rd April 2011.
Reseeded at dimeadozen by hothcanada, 22nd January 2016.


Gang Of Four - Paradiso, Amsterdam, The Netherlands - 02.03.1979 (Flac)



Good sounding recording. Thanks to the taper for sharing it on Dime.

Original Info File:

Setlist:

01-I found that Essence Rare
02-5:45
03-Anthrax
04-I'm waiting for my elevator
05-Glass
06-It's her factory
07-Armalite Rifle
08-Natural's not in it
09-Damaged Goods
10-Ether
11-Return the Gift
12-At Home he's a Tourist
-------------------------------
13-Last train leaves at
14-The Times

Master audience recording
Sony TC-150 + Sony ECM-150
recorded on a TDK C90
Made to wav with Adobe Audition
Split with Adobe Audition
Made to Flac with Traders Little helper

Devo - Unknown Venue, Akron, OH, USA - xx.xx.1974 (Flac)



Very good sounding early recording od Devo. Thanks to EVOLVIST and ARCORMAN for sharing.


Original Info File:

SOURCE: CD-R
LINEAGE: CD-R -> dMC Audio CD Input -> dBPowerAMP Music Converter -> FLAC
TAPED BY: ???
RIPPED BY: Alex Brunelle

75.5MB (FLAC)

SETLIST:
1. Intro to song
2. Fraulein
3. Intro to song
4. The Death of Lt Casanova
5. Intro to song
6. Midget

MD5 sums included in download

It's a really cool show. It is the earliest known DEVO show in circulation. The versions of "Fraulein" and "Midget" are drastically different from those you may be familiar with.

Please, stop by the site and sign up for the mailing list and don't forget to check out Recombo Radio, every Friday night from 8pm-10pm on Disconnection Radio (http://radio.disconnection.net/)!

-Alex Brunelle

Reseed by ARCORMAN

Many, many thanks to EVOLVIST !!!!  The great man from the HUB !!!

Diamanda Galas - Donaueschinger Musiktage, Donaueschingen, Germany - 16.10.1982 (Flac)


Excellent sounding recording, seems SBD based. Thanks to the original uploader.

Diamanda Galas:voice.electronics

Program:

01. Wild Woman with Steakknives for solo voice - Part 1 - 3.58
02. Wild Woman with Steakknives for solo voice - Part 2 - 5.24
03. Wild Woman with Steakknives for solo voice - Part 3 - 1.42
04. Piece for solo voice, tape and live-electronics     - 14.25

Godflesh - Bloodstock Open Air, Catton Park, Walton-on-Trent, UK - 09.08.2015 (Flac)



Excellent audience recording. Thanks to the taper for sharing on Dime.

Original Info File:

Set list

01 Intro
02 New Dark Ages 
03 Deadend 
04 Shut Me Down 
05 Life Giver Life Taker
06 Carrion 
07 Towers Of Emptiness 
08 Christbait Rising 
09 Streetcleaner 
10 Spite 
11 Crush My Soul
12 Like Rats 

Band Line-up

Justin Broadrick – vocals, guitar, programming
G.C. Green       – bass

Sound Professionals SP-CMC-8 Microphones
Sound Professionals SP-SPSB-11 Mini Battery Module with Bass Roll-Off (16Hz)
Edirol R-09HR  44.1kHz / 16 bit
USB>PC>CD Wave Editor>Trader's Little Helper>FLAC level 8>Dime

Headlining the Sophie Lancaster stage on the final day of Bloodstock 2015.

Please do not sell this recording but share freely and enjoy it!

RE-UPLOAD: The Pop Group - Odissea 2001, Milano, Italy - 29.04.1980 (Flac)



Another recording that was requested. Excellent sound. Thanks to Creatured for sharing this recording on DIME.

Sbd/FM? unknown(very low) gen cass > Azimuth > Audacity 24/96 normailized/DC Offset Correction > 16/44.1 Flac8

 Is this a 38f master recording? I know he recorded a lot of good shows in Italy around this time.


01. Shake The Foundation I
02. Forces of Oppression
03. Feed The Hungry
04. There Are No Spectators
05. "death to the people"?
06. How Much Longer Do We Tolerate Mass Murder?
07. Where There's a Will
08. Justice
09. We Are All Prostitutes
10. Shake The Foundation II
11. Rob A Bank

Foxtrotter
Creatured