Tuesday, 29 March 2016

RE-UPLOAD: The Sisters of Mercy - Radio Merceyside Rockaround Interview with Hussey & Marx - 11.05.1984 (WAV)



Thanks to Sleepchamber for this one.


Various - Impact TV Show - 21.12.1977 (MPG)







Thanks to the anonimous collaborator for sending me video to share here.

Info:
TV music special hosted by Mike Mansfields originally titled Best of British, and later changed to Impact.
The special features was intended for broadcast in early 1978 but never did air.

Lineage

Program:

The Damned
01. Neat Neat Neat
02. Problem Child
03. Fan Club

The Rich Kids
01. Bullet Proof Lover
02. Rich Kids
03. Young Girls

Generation X
01. Your Generation
02. Wild Youth

The Adverts
01. Bored Teenagers
02. Great British Mistake

Total Time: 26.33 min

Format                                   : MPEG-PS
File size                                : 817 MiB
Duration                                 : 26mn 33s
Overall bit rate                         : 4 299 Kbps
Writing library                          : ArcSoft MPEG-2 NTSC

Video
ID                                       : 224 (0xE0)
Format                                   : MPEG Video
Format version                           : Version 2
Format profile                           : Main@Main
Format settings, BVOP                    : Yes
Format settings, Matrix                  : Custom
Format settings, GOP                     : M=3, N=15
Duration                                 : 26mn 33s
Bit rate                                 : 4 096 Kbps
Width                                    : 640 pixels
Height                                   : 480 pixels
Display aspect ratio                     : 4:3
Frame rate                               : 29.970 fps
Standard                                 : NTSC
Color space                              : YUV
Chroma subsampling                       : 4:2:0
Bit depth                                : 8 bits
Scan type                                : Progressive
Compression mode                         : Lossy
Bits/(Pixel*Frame)                       : 0.445
Time code of first frame                 : 00:00:00:00
Time code source                         : Group of pictures header
GOP, Open/Closed                         : Open
Stream size                              : 776 MiB (95%)
Writing library                          : ArcSoft MPEG-2 NTSC
Color primaries                          : BT.470 System M
Transfer characteristics                 : BT.470 System M
Matrix coefficients                      : BT.601

Audio
ID                                       : 192 (0xC0)
Format                                   : MPEG Audio
Format version                           : Version 1
Format profile                           : Layer 2
Duration                                 : 26mn 33s
Bit rate mode                            : Constant
Bit rate                                 : 128 Kbps
Channel(s)                               : 2 channels
Sampling rate                            : 44.1 KHz
Compression mode                         : Lossy
Stream size                              : 24.3 MiB (3%)

Play Dead -The Tube, Tyne Tees, Newcastle Upon Tyne, UK - 14.12.1984 (MPG)



Huge Thanks to the anonimous collaborator for sending me this excellent rip to share here.


Lineage: VHS(0) -> Panasonic NV-HS860 -> EZCAP With Arcsoft Showbiz -> MPEG2

Tracklist:
Walk Away
Sacrosanct


Format                                   : MPEG-PS
File size                                : 244 MiB
Duration                                 : 6mn 24s
Overall bit rate mode                    : Variable
Overall bit rate                         : 5 319 Kbps
Writing library                          : ArcSoft MPEG-2 PAL

Video
ID                                       : 224 (0xE0)
Format                                   : MPEG Video
Format version                           : Version 2
Format profile                           : Main@Main
Format settings, BVOP                    : Yes
Format settings, Matrix                  : Custom
Format settings, GOP                     : M=3, N=10
Format settings, picture structure       : Frame
Duration                                 : 6mn 24s
Bit rate mode                            : Variable
Bit rate                                 : 4 989 Kbps
Maximum bit rate                         : 7 500 Kbps
Width                                    : 720 pixels
Height                                   : 576 pixels
Display aspect ratio                     : 4:3
Frame rate                               : 25.000 fps
Standard                                 : PAL
Color space                              : YUV
Chroma subsampling                       : 4:2:0
Bit depth                                : 8 bits
Scan type                                : Interlaced
Scan order                               : Top Field First
Compression mode                         : Lossy
Bits/(Pixel*Frame)                       : 0.481
Time code of first frame                 : 00:00:00:00
Time code source                         : Group of pictures header
GOP, Open/Closed                         : Closed
Stream size                              : 229 MiB (94%)
Writing library                          : ArcSoft MPEG-2 PAL
Color primaries                          : BT.601 PAL
Transfer characteristics                 : BT.470 System B, BT.470 System G
Matrix coefficients                      : BT.601

 

Fields of the Nephilim - Backstage Werk, Munich, Germany - 17.03.2016 (MP3 192)


Originally recorded in MP3, Thanks to the taper for letting me share it here.

Setlist

Intro
Dawnrazor
Moonchild
For Her Light
Love Under Will
From the Fire
Zoon III (Wake World)
Psychonaut
Earthbound
Prophecy
Last Exit for the Lost


PJ Harvey - Leicester University, Leicester, UK - 02.06.1992 (Flac)



HUGE Thanks to nashspacerocket for sending me his master revording to share here.

Audience recording. Recorded on Sony TCD-D3 DAT, ECM909A mic.

Edited with audacity to segment tracks, no other processing done.

Setlist:

01. Rid Of me
02. O Stella
03. Dress
04. Highway 61 Revisited
05. Dry
06. Hair
07. Joe
08. Victory
09. Me-Jane
10. Sheela-Na-Gig
11. Man-Size
12. Rub Til It Bleeds
13. Water


RE-UPLOAD: Killing Joke - Tenax, Firenze, Italy - 10.11.1983 (DVD)





Thanks to Maurizio 'Ratpie'. for sharing this first and to cEnda for sharing it here!

PAL dvd (52:32)
Qual: approx B-

This is a video I know very little about.
It is an amatorial, shot by the friend of an old friend (and, as such, it could well be something like a 2nd generation copy).
The video is dark and the first notes of nearly all the songs are cut, but the quality is not really THAT bad, especially given the age of this very early private recording).
Sometimes it shows the marks of the cassette's old age (since I got it soon after), but that's not so compromising as well...
At the following URL you may find a short movie clip of the show:
http://www.youtube.com/watch?v=JDQZgY2yuHk


Lineage:
Unknown (but low) gen. VHS> DVD> Torrent
Stats:
Audio - AC3, 48000Hz, 384 kbps
Video - MPEG2 PAL, 25 fps, 8828 kbps, pic 720x576
All the best from Italy.

Tracklist:
01. Fall Of Because
02. Frenzy
03. Psyche
04. Tabazan
05. Sun Goes Down
06. We Have Joy
07. Song And Dance
08. Requiem
09. Empire Song
10. Wardance
11. Change
12. Complications
13. The Gathering
14. Wilfull Daze
15. Firedances

The Slits - The Talking Heads, Southampton, UK - 15.10.2009 (Flac)



Thanks to Anon for sending me this recordingto share here.

Setlist:

01 Shoplifting
02 FM
03 New Town
04 Reject
05 Fadeaway
06 Crew War
07 Love und Romance
08 Man Next Door
09 World Of Grownups
10 Cry Baby
11 Typical Girls
12 Vindictive
13 Heard It Through the Grapevine
14 Animal Space
15 Partner From Hell

Lineage: Sony ECM-717>Yamaha Pocketrak 2G>USB>Soundforge>Traders Little Helper

The Slits - The Rainbow, Birmingham. UK - 14.10.2009 (2 Versions - Flac)



I already posted a DVD version of this mythic gig, now it's time for 2 different audio recordings.

Original Info Files:

Version 1

Lineage: MCSM-4 mics>Microphone Madness MM-CBM-MINI Battery Box>iRiver iHP-120 (Rockboxed)

Transfer: iRiver iHP-120> usb > wav > Soundforge 8.0 (Amplify, Fade-in/fade-out)>CD Wave (Track splits)>FLAC

Tracklist:

1.Intro
2.Man Next Door
3.Reject
4.FM
5.Newtown
6.Grown Ups
7.I Heard It Through The Grapevine
8.Love Und Romance
9.Lazy Slam
10.Fade Away
11.Cry Baby
12.Shop Lifting
13.Earthbeat
14.Partner From Hell
15.Vindictive
16.Typical Girls

Location:

6 feet from left stack. 

I didn't hang around for the encore jam with the member of the audience.

Nice review here
http://thehearingaid.blogspot.com/2009/10/slits-pens-courtesy-group-rainbow.html

Cracking photos here
http://www.drw-images.co.uk/The%20Slits/index.html
http://www.flickr.com/photos/wayne_john_fox/sets/72157622594196470/

Version 2

Recorded by P.J.Peanutz Edirol R-09
Pix by P.J.

Setlist:

Man Next Door
Reject
FM
Newtown
Grow-ups
I Heard It Through The Grapevine
Love Und Romance
Lazy Slam
Fade Away
Cry Baby
Shoplifting
Earthbeat
Partner From Hell
Vindictive
Typical Girls
Jam (with Tessa - Bass, Ari - drums, Unknown from audience - vocals)


Ari Up - Barfly, London, UK - 02.03.2005 (Flac)



Excellent sound. Thanks to Anon for sending me this recording to share here.

Original Info File:

taper: SMORES
transfer: KRW&CO
tracking: SMORES

equipment: Core Sound HEB w/Bass Rolloff > Sony M1 DAT
AUDIENCE DAT MASTER(44.1KHZ)>SONY PCM R-300 DAT>CREATIVE SOUNDBLASTER (16/48KHZ) > Adobe Audition 5.5 (level boost) > CD Waveditor (tracking) > flac8

SET LIST: (any help appreciated)
1. -intro and soundcheck-
2. Instant Hit
3. Man Next Door (aborted)
4. Man Next Door
5. Love Und Romance
6. Shoplifting
7. Shoplifting (she loves it so much, she does it again!)
8. Crew War
9. ?
10. Fade Away
11. Police And Thieves [The Clash]
12. Hated By Many, Loved By A Few
13. I Heard It Through The Grapevine [Gladys Knight & The Pips]
14. ?
15. ?
16. World Of Grownups
17. Allergic
18. FM
19. Newtown
20. Typical Girls


notes from smores: this was one bassy show! I cannot imagine what this would have sounded like without the rolloff! most of the show is fine, with the last couple songs being pushed to the limit (and beyond). Anyway, Ari was out there, for sure. I seem to remember she kept taking her clothes off and by the end had very little remaining.

bill: Ari Up/Tegan And Sara/Kristeen Young


The Raveonettes - King Tut's Wah Wah Hut, Glasgow, Scotland - 04.02.2003 (Flac)



Great band in it's best phase. Thanks to jamroom for sharing on Dime.

Original Info File:

Recording info: SP-CMC-2 > SP-SPSB-1 > Sony MZN 707 (LP Mode)

Transfer info: MD Master->MDS-JE770->optical output->iRiver H120 [rockboxed]->USB->Adobe Audition 3 [fades->+7db]->TLH FLAC Level 8

Taped by Gary Barrett (alfienoakes)
Transferred by jamroom

Setlist:
01 [04:14] Everyday [Buddy Holly cover]
02 [02:33] Attack Of The Ghost Riders
03 [02:45] Evil L.A. Girls
04 [03:41] Veronica Fever
05 [02:24] Let's Rave On
06 [03:12] Chain Gang Of Love
07 [03:29] That Great Love Sound
08 [02:29] Wanna Dance
09 [02:22] Do You Believe Her
10 [02:14] My Tornado
11 [02:54] Demons Fire
12 [02:33] Rebel Invasion
13 [01:16] encore applause
14 [04:56] Beat City

Total [41:07]

Gary Barrett (alfienoakes on Dime) RIP

Gary was a well-known figure in the Glasgow music scene, after working in A1 Sounds / Fopp and Avalanche Records for over 20 years. He also promoted a few shows in the mid 80s.
When minidisc technology emerged, he immediately set himself up for recording and began chronicling all the gigs he attended. This is a record of all the existing MD’s I found in his massive music collection, which his brother asked me to transfer on to hard drive.
Gary passed away suddenly from natural causes in Sept 2006, ironically just after he purchased his first HD recorder and only got to record 2 shows with (Green On Red at King Tut’s being the last one).
Big thanks to jamroom for taking over this project and the many dimebots who have helped him in this massive endeavour. This MD Project is a tribute to Gary's passion for live music and supporting local and small touring bands.

Deadotter

Band members:

Sune Rose Wagner - Guitar, Vocals
Sharin Foo - Bass, Vocals
Manoj Ramdas - Guitars
Jakob Hoyer - Drums

Gig Notes:
Support was from Nylon Pylon.

Recording notes and sound quality:
Added fades and boosted the volume by +7db. Good sounding recording.

band links
http://www.theraveonettes.com/
https://www.facebook.com/theraveonettes?sk=wall

venue link
http://www.kingtuts.co.uk/

Please support the band by buying their albums, merch, and by going to see them live. They deserve your cash.

Do NOT sell this recording, trade FREELY!
No art, make you own.
Enjoy!



Wednesday, 23 March 2016

RE-UPLOAD: The Sisters Of Mercy - Zurich Radio Interview with Wayne Hussey - 24.04.1985 (Flac)


Interview with Wayne Hussey about Gary Marx leaving, wearing black and Doktor Avalanche.  Thanks to sleepchamber for sending me this one to rip and share here.

Lineage: Tape -> M-Audio Quattro -> Audacity -> TLH -> Flac (level 8)


Various Artists - Futurama Rock 80, The Queens Hall, Leeds, UK - 13&14.10.1980 (MPEG)













Excellent documentary in 4 parts, full of live performances, capturing a very clear picture of the independent music scene in begining of the 80's. Huge Thanks to the anonimous collaborator.

Lineage: VHS(0) -> Panasonic NV-HS860 -> EZCAP With Arcsoft Showbiz -> MPEG2

Part 1 - 24.41m
Classix Nouveau - Soldier
Acrobats of Desire - Queen Of The Wake
League Of Gentlemen - Dislocated
Young Marble Giants - Colossal Youth
Not Sensibles - Death To Disco
ABC (Vice - Versa) - Deocratic Dancebeat
Hazel O'Connor's Megahype - Zoo
Hazel O'Connor's Megahype - Glass Houses

Part 2 - 26.37m
The Flowers - After Dark
Boots For Dancing - Parachute
Music For Pleasure - Madness at the Mission
The Mirror Boys - The Boot of My Car
Guy Jackson - Radio 1
Athletico Spizz '80 - Clocks Are Big
Athletico Spizz '80 - Soldier Soldier
Echo And The Bunnymen - Crocodiles

Part 3 - 25.01m
Durutti Column - Sketch For Summer
Artery - Afterwards
Frantic Elevators - Production Prevention
...Or Was He Pushed? - Paean to a T.
I'm So Hollolw - Touch
Blah! Blah! Blah! - But I Loved You
Eaten Alive By Insects - John waine's Jacket
The Soft Boys - Only The Stones Remain
Altered Images - Dead Pop Stars

Part 4 - 23.39m
Tribesman - Kwesi Style
Blurt - Hard Down On The Joystick
The Danse Society - Sink
Naked Lunch - Fade Away
Clock DVA - 4 Hours
Siouxsie and The Banshees - Paradise Place
Siouxsie and The Banshees - Eve White, Eve Black

RE-UPLOAD: Killing Joke - La Edad De Oro, Madrid, Spain - 06.10.1983 (ProShot DVD)


We pay homage to Kigonjiro, the man that dug all the programs of "La Edad de Oro", a fabulous spanish music program from the 80's, wich featured a rooster of bands that it's still unbeliavable these days. All the programs presented have excellent image quality, with the exception of this one, wich is slightly inferior, a pity, but it's still a hell of a performance by Jaz and the band.

Original Info file:

KILLING JOKE La Edad de Oro, Estudio 1 de Prado del Rey, Madrid, October 6, 1983, New Sensations European Winter Tour, PROSHOT, PAL, 4:3 , Dual Mono
Authored with DVD Studio PRO

This edition source: Satellite rebroadcast by Nostalgia Channel
Recording equipement: unkmow --> Apple Compressor --> MPEG Streamclip --> DVDSP

Show: 24 minutes
Interview: 11,35 minutes
Aprox Total time: 35,35 minutes


Bit Rate: 7.69 Mbps
Video Tracks:
MPEG-2, 720 × 576, 4:3, 25 fps, 8.00 Mbps, upper field first
Audio Tracks:
PCM stereo, 48 kHz, 1.54 Mbps (dual mono but detected as stereo by MPEG Streamclip)
Artwork included


Set List:

Frenzy
Lust Almighty
Wardance
Pssyche
Song And Dance
Sun Goes Down


This is not a true Stolen File because was gently sent to my by Javier Rincón after read my comment in kigonjiro.wordpress.com the place I´m using to share the full La Edad de Oro programs, not only the gigs and interviews. So thank you, Javier.

This is one of these situations when a high bitrate not means superior video quality. Standalone DVD-Rs aren´t the best recording option but sometimes are the only option and this time this source is the only one that we can afford. Hope you will understand.

Quality is not the usual for the True Stolen files but this was one of the missing pieces of this puzzle and I´m very happy to be able to share it with you.

- Don´t ask me for permission, share this in any place you want but, please, credit the source.


Enjoy

Kigonjiro

CHVRCHES - The Fillmore, Charlotte, North Carolina, USA - 28.10.2015 (1080p TS)








Thanks to the original uploader on Dime.

Lineage: Live Webcast -> downloaded .ts segments (batch script) -> TSSplitter (join) -> .ts
Video: MPEG4 Video (H264) 1280x720 16:9 6000 Kbps 30.00 fps
Audio: AAC 128 Kbps 44.1 KHz stereo

Setlist:
Never Ending Circles
We Sink
Keep You on My Side
Lies
Make Them Gold
Empty Threat
Tether
Playing Dead
Science/Visions
Gun
Bury It
Under the Tide
Recover
Leave a Trace
Clearest Blue

Encore:
Afterglow
The Mother We Share

TRT = 01:19:39

MediaInfo:
General
ID                                       : 1 (0x1)
Complete name                            : CHVRCHES - 2015-10-28 The Fillmore, Charlotte, NC [720p].ts
Format                                   : MPEG-TS
File size                                : 3.50 GiB
Duration                                 : 1h 19mn
Overall bit rate mode                    : Variable
Overall bit rate                         : 6 292 Kbps

Video
ID                                       : 481 (0x1E1)
Menu ID                                  : 1 (0x1)
Format                                   : AVC
Format/Info                              : Advanced Video Codec
Format profile                           : Main@L3.1
Format settings, CABAC                   : Yes
Format settings, ReFrames                : 2 frames
Format settings, GOP                     : M=3, N=60
Codec ID                                 : 27
Duration                                 : 1h 19mn
Bit rate mode                            : Constant
Bit rate                                 : 6 000 Kbps
Width                                    : 1 280 pixels
Height                                   : 720 pixels
Display aspect ratio                     : 16:9
Frame rate                               : 30.000 fps
Color space                              : YUV
Chroma subsampling                       : 4:2:0
Bit depth                                : 8 bits
Scan type                                : Progressive
Bits/(Pixel*Frame)                       : 0.217
Stream size                              : 3.26 GiB (93%)

Audio
ID                                       : 482 (0x1E2)
Menu ID                                  : 1 (0x1)
Format                                   : AAC
Format/Info                              : Advanced Audio Codec
Format version                           : Version 4
Format profile                           : LC
Muxing mode                              : ADTS
Codec ID                                 : 15
Duration                                 : 1h 19mn
Bit rate mode                            : Variable
Bit rate                                 : 128 Kbps
Channel(s)                               : 2 channels
Channel positions                        : Front: L R
Sampling rate                            : 44.1 KHz
Compression mode                         : Lossy
Delay relative to video                  : 4ms
Stream size                              : 72.9 MiB (2%)

Menu
ID                                       : 480 (0x1E0)
Menu ID                                  : 1 (0x1)
Duration                                 : 1h 19mn
List                                     : 481 (0x1E1) (AVC) / 482 (0x1E2) (AAC)
Maximum bit rate                         : 6128000

The Psychedelic Furs - My Father's Place, Roslyn, NY, USA - 24.10.1982 (Flac)



Exvellent FM broadcast. Promoting their 3rd album "forever now".Thanks to the original uploader on Dime.

Original Info File:




The Stonecutter Collection Vol. 110

source: FM Broadcast > 90 min. TDK-SA cassette master
transfer: Sony TC-WE 475 > gold tipped cables > JVC XL-R2010 CD-RW (44.1 Hz) > wav file
tracking: wav (tracking) > flac (sb's aligned in flac frontend) > torrentially yours.
Do not sell this recording.
share freely, losslessly and gaplessly.

Setlist:
01: radio intro > President Gas 5:51
02: merry-go-round 4:24 (dropout in 1st few seconds)
03: angels (only you and I) 4:15
04: no easy street 5:12
05: run and run 4:12
06: love my way 4:19
07: danger 2:38
08: goodbye 5:08
09: pretty in pink > 4:03
10: Sister Europe 4:58
11: sleep comes down 4:13 (cuts at 1:20, tape flip)
12: into you like a train 5:49
13: forever now 5:50   
14: India 5:13

runtime: 66:06 (minutes/ seconds)

The Psychedelic Furs
Richard Butler: vocals
John Ashton: guitar
Gary Windo (replacing Duncan Kilbourne): sax
Tim Butler: bass
Vince Ely: drums

notes:
 this was the first tour after Duncan Kilbourne and Roger Morris left the band
etree lists "imitation of Christ" as being played before "India"either that is a mistaken listing or it was edited out of the broadcast.
nothing seems to be edited out of the recording of the broadcast and just one song is cut (track 11) for the master tape flip

The Cult - Albert Hall, Manchester, UK - 26.02.2016 (MP3 320)



Excellent concert! Huge Thanks to Blafiend for sending me his master to share here. The recording was originally made in MP3.

Setlist:

01. Dark Energy
02. Rain
03. Wild Flower
04. Horse Nation
05. Hinterland
06. Sweet Soul Sister
07. Lil' Devil
08. Gone
09. Honey From a Knife
10. Birds of Paradise
11. Deeply Ordered Chaos
12. Fire Woman
13. Nirvana
14. The Phoenix
15. She Sells Sanctuary
16. G.O.A.T.
17. Love Removal Machine


The Durutti Column - Aula Magna, Lisboa, Portugal - 01.05.1988 (Flac)



I was at this one :)

HUGE Thanks to Ziggy for posting it on Dime.


Original Info File:

Source: Unknown Audience Recording
Lineage: Tape (unknown Gen)>Marantz Cassette Deck SD555>Creative SoundBlaster Connect Analogue in and out>Zoom H2 line in WAV - 96 kHz / 24 bit Wave>Nero Wave Editor for EQ and Fade in and out>dbPoweramp Music Converter downsampling to wave 48 KHz/24 bit>Nero Wave Editor track cut>dbPoweramp Music Converter>FLAC

Set List :

01. Mercy Theme
02. Miss Haymes
03. Arpeggiator
04. What is it to Me (Woman)
05. Jongleur Grey
06. Dance II
07. Bordeaux Sequence
08. Tomorrow
09. Requiem Again
10. English Landscape Tradition
11. Sketch for Dawn
12. Jacqueline
13. When the World
14. The Missing Boy
15. Red Shoes
16. The Beggar
17. Sketch for Summer
18. Pol in B

Vini Reilly - Guitar, Keyboards, Vocals
Bruce Mitchell - Drums, Percussion, Drum Machine
Andy Connell - Keyboards, Percussion

This is one of those mythical concerts from the late 80's in Aula Magna.Unfortunatelly i was not able to witness this one but was able to get my hands on this tape soon after the concert. I don't know the source, i don't know the generation of my copy. I know that i bought it to some guys that sell through mail order.
I was working on this recording and while i was looking for the setlist for this show i found that on June 2015 a video of this show was uploaded to YouTube and a month ago a reworked version of it was also uploaded. The Audio is not the same. This is for sure a different source.
Hope you enjoy and please share.
Cheers
Z

The Cramps - Göta Lejon, Stockholm, Sweden - 10.04.1986 (Flac)



Very good sound. Thanks to the original uploader on Dime.

Original Info File:

Source: Master FM (Kenwood tuner -> Kenwood tape deck)
Transfer: tape -> Denon DR-M12HX -> Van Den Hul RCA -> SB X-Fi XM -> Wavelab -> cdwave -> flac

01. Cornfed Dames
02. Do The Clam
03. Love Me
04. What's Inside A Girl
05. Blue Moon Baby
06. Can Your Pussy Do The Dog
07. Surfin' Bird

Transfered and uploaded to DaD in Nov 2007 by pata63
Please don't convert and share. Keep those crappy mp3's to yourself!!

The B-52's - Palalido, Milano, Italy - 29.11.1980 (Flac)



Very Good sound. Thanks to 6666trac for sharing on Dime.

Original Info File:

Type: Audience

Source: Hitachi LN Master Cassette > Playback With Aiwa F620 > Nero Wave Editor >
        Equalized With Magix 2007 > Wav > Flac8 > You
Recorded With Philips Portable Stereo With Automatic Level Record.

Artwork: Included

runtime:  71:18 (minutes/seconds, previously was 71:28)  

Setlist:
01: Planet Claire  5:20
02: lava 5:19
03: give me back my man  4:28
04: 6060842  2:56
05: the devil's in my car  4:32
06: 52 girls  4:00
07: Quiche Lorraine  4:17
08: dirty back road  3:04
09: private Idaho  3:53
10: strobe light  4:09
11: runnin' around  3:23
12: rock lobster  5:19
13: dance this mess around (and encore applause) 5:25
14: there's a moon in the sky
    (called the moon)  4:53
15: party out of bounds (and encore applause) 4:30
16: 53 miles west of Venus  5:46

the B-52's
Fred Schneider: lead vocals
Cindy Wilson: lead vocals
Kate Pierson: lead vocals, bass
Ricky Wilson: guitar
Keith Strickland: drums

Remaster Lineage:
  download (flac) > wav > flac (sb's aligned) > remaster upload.

Remaster Notes:

This was posted on March 7, 2010 by 6666trac.
I have balanced the levels, reduced some loud claps and done some re-tracking.
I also removed fadeouts after track 13 and 15 by splicing them together seamlessly (removing about 10 seconds of fading in and fading out applause for the 2 splices).

Television - Arches, Glasgow, Scotland - 24.06.2004 (Flac)


Very good sounding recording. Thanks to jamroom for sharing on Dime.

Original Info File:


Audience recording

Recording info: SP-CMC-2 > SP-SPSB-1 > Sony MZN 707 (LP Mode)

Transfer info: MD Master->MDS-JE770->optical output->iRiver H120 [rockboxed]->USB->Adobe Audition 2 [fades->+7db]->TLH FLAC Level 8

Taped by Gary Barrett (alfienoakes)
Transferred by jamroom

Setlist:
01 [02:19] Intro
02 [06:23] The Dream's Dream
03 [06:59] 1880 Or So
04 [04:24] Venus (De Milo)
05 [06:14] Balloon
06 [03:44] Stax
07 [07:22] Little Johnny Jewel
08 [05:47] Prove It
09 [03:31] Squaggle
10 [06:07] Call Mr. Lee
11 [06:21] Let's Go To The Sea
12 [08:47] Persia
13 [03:58] See No Evil
14 [01:37] Tuning and band intros
15 [13:34] Intro->Marquee Moon
16 [03:25] encore applause
17 [03:33] Glory
18 [04:54] Psychotic Reaction

Total [99:05]

Gary Barrett (alfienoakes on Dime) RIP

Gary was a well-known figure in the Glasgow music scene, after working in A1 Sounds / Fopp and Avalanche Records for over 20 years. He also promoted a few shows in the mid 80s.
When minidisc technology emerged, he immediately set himself up for recording and began chronicling all the gigs he attended. This is a record of all the existing MD’s I found in his massive music collection, which his brother asked me to transfer on to hard drive.
Gary passed away suddenly from natural causes in Sept 2006, ironically just after he purchased his first HD recorder and only got to record 2 shows with (Green On Red at King Tut’s being the last one).
Big thanks to jamroom for taking over this project and the many dimebots who have helped him in this massive endeavour. This MD Project is a tribute to Gary's passion for live music and supporting local and small touring bands.

Deadotter

Band members:

Tom Verlaine – Vocals, Guitar
Billy Ficca – Drums
Fred Smith – Bass, Vocals
Richard Lloyd – Guitar, Vocals

Gig Notes:

Gary never taped any support acts, if there were any.

Recording notes and sound quality:

Added fades and boosted the volume by +4db. There's some chat to be heard (why?) and an enthusiastic clapper / singer near Gary for a while, but it's still a great listen.

Many thanks to jokingman for completing the setlist.

band links
https://www.facebook.com/televisionband/

venue link
http://www.thearches.co.uk/

Please support the band by buying their albums, merch, and by going to see them live. They deserve your cash.

Do NOT sell this recording, trade FREELY!
No art, make you own.
Enjoy!


Thursday, 10 March 2016

The Sisters of Mercy - O2 ABC, Glasgow, Scotland - 12.10.2015 (Flac 24-48)



Very good sound quality. Thanks to RSDundee for sharing his recording on Dime.

Source: MCSM-4 Mics, TASCAM DR-2d 24-48

Lineage: TASCAM>PC(USB)>CD Wave Editor>FLAC(8)

Setlist:-

01 Shut The Fuck Up/Lucretia My reflection
02 Ribbons
03 Crash and Burn
04 Body Electric
05 Alice
06 A Rock and a Hard Place
07 I'm a Police Car
08 Doctor Jeep/Detonation Boulivard
09 Dominion/Mother Russia
10 Summer
11Jihad
12 Valentine
13 Arms
14 First and Last and Always
15 Temple of Love

Encore (First)
16 1959
17 Something Fast
18 Flood II

Encore (Second)
19 More
20 Vision Thing
21 This Corrosion

New Order - A True Story - MTV Special - 09.09.1989 (MPG)







A documentary about New Order donee when the band was at it's peak. Thanks to the anonimous collaborator for sending me this video to share here.