Thursday, 30 June 2016

The Sisters Of Mercy - Palladium, Cologne, Germany - 08.03.2016 (MP3)


Thanks to paul for sharing on Heartland.

Setlist:

More
Ribbons
Crash And Burn
Doctor Jeep / Detonation Boulevard
Body Electric
Amphetamine Logic
Alice
Flood I
Arms
No Time To Cry
Dominion / Mother Russia
Summer
Jihad
Valentine
Flood II
1959
Lucretia, My Reflection
Vision Thing
First And Last And Always
Temple Of Love
This Corrosion

The Cult - Alabamahalle, Munich, Germany - 03.02.1986 (ProShot DVD)

 
Thanks to the anonimous collaborator for sending me the videos to share here.

Lineage: VHS (Unknown Gen) -> Panasonic NV-HS860 -> EZCAP With Arcsoft Showbiz -> AVI
Editing and Authoring:  Adobe Premiere -> Adobe Encore -> DVD

Notes: This is a composite version of two different broadcasts, with similar image quality.
I used the one with better sound quality as the basis and added the 2 songs that were included
only on the second tape. Nirvana cuts in, Brother Wolf Sister Moon is only a snippet,
Spiritwalker fades out.

Tracklist:
1. Nirvana
2. Love
3. Revolution
4. Rain
5. She Sells Sanctuary
6. Brother Wolf Sister Moon
7. Big Neon Glitter
8. Spiritwalker

Total Time: 31.08 Minutes

Video
ID                                       : 224 (0xE0)
Format                                   : MPEG Video
Format version                           : Version 2
Format profile                           : Main@Main
Format settings, BVOP                    : Yes
Format settings, Matrix                  : Default
Format settings, GOP                     : M=3, N=12
Format settings, picture structure       : Frame
Bit rate                                 : 7 754 Kbps
Width                                    : 720 pixels
Height                                   : 576 pixels
Display aspect ratio                     : 4:3
Frame rate                               : 25.000 fps
Standard                                 : PAL
Color space                              : YUV
Chroma subsampling                       : 4:2:0
Bit depth                                : 8 bits
Scan type                                : Interlaced
Scan order                               : Bottom Field First
Compression mode                         : Lossy
Bits/(Pixel*Frame)                       : 0.748
Time code of first frame                 : 00:00:00:00
Time code source                         : Group of pictures header
GOP, Open/Closed                         : Closed


Audio
ID                                       : 189 (0xBD)-128 (0x80)
Format                                   : AC-3
Format/Info                              : Audio Coding 3
Mode extension                           : CM (complete main)
Format settings, Endianness              : Big
Muxing mode                              : DVD-Video
Bit rate mode                            : Constant
Bit rate                                 : 192 Kbps
Channel(s)                               : 2 channels
Channel positions                        : Front: L R
Sampling rate                            : 48.0 KHz
Compression mode                         : Lossy


Gang of Four - David "Kid" Jensen Show, London, UK - 12.08.1982 (Flac)



Thanks to Kingrue for sharing this recording on TTD.

The Stonecutter Collection vol 133
Source: FM Broadcast > 2nd generation cassette (Maxell XL-IIS)
Transfer: Sony TC-WE 475 > gold tipped cables > JVC XL-R2010 CD-RW (44.1)
Editing: Soundforge (tracking) > Wav > TLH [SB's aligned] Flac Level 8
Traders Den 4/4/16
Transferred and Tracked by kingrue upload 758
....................................................................

Here's a short FM performace from Go4.
It was filler at the end of another tape, unfortunately the last song is cut off.
If anyone has the complete recording, please share it.
thanks to Rich for supplying the tape.

Band line-up
Jon King - Vocals
Andy Gill Guitar & Vocals
Sara Lee - Bass
Hugo Bumham - Drums


01 The World At Fault
02 We Live As We Dream, Alone
03 I Will Be A Good Boy
04 History of The World (incomplete)

Total Time = 14:03 min

enjoy

George

David Bowie - Estádio de Alvalade, Lisboa, Portugal - 14.09.1990 (MPG)

 

Thanks to ziggy for sending me the file to share here.

This is the raw MPEG File from the new broadcast by RTP (Rádio Televisão Portuguesa) a few days after David's death in 2016. The DVD version can be found on Dime and Bowie Station.

Source:RTP Memória (Cable TV) > Conceptronic Home Video Creator (HQ capture)

Setlist:

01. Space Oddity
02. Rebel Rebel
03. Ashes To Ashes
04. Life On Mars
05. Stay
06. Sound And Vision
07. Ziggy Stardust
08. China Girl
09. Young Americans
10. Suffragette City
11. Fame
12. Heroes
13. Changes
14. Modern Love
15. Jean Genie / Gloria

Share and enjoy.
Cheers
Z

Format                                   : MPEG-PS
File size                                : 2.90 GiB
Duration                                 : 1h 12mn
Overall bit rate mode                    : Variable
Overall bit rate                         : 5 715 Kbps
Writing library                          : Created by NeMpeg2Enc (2016-01-16T01-09-59)

Video
ID                                       : 224 (0xE0)
Format                                   : MPEG Video
Format version                           : Version 2
Format profile                           : Main@Main
Format settings, BVOP                    : Yes
Format settings, Matrix                  : Default
Format settings, GOP                     : M=3, N=12
Duration                                 : 1h 12mn
Bit rate mode                            : Variable
Bit rate                                 : 5 346 Kbps
Maximum bit rate                         : 8 000 Kbps
Width                                    : 720 pixels
Height                                   : 576 pixels
Display aspect ratio                     : 4:3
Frame rate                               : 25.000 fps
Standard                                 : PAL
Color space                              : YUV
Chroma subsampling                       : 4:2:0
Bit depth                                : 8 bits
Scan type                                : Progressive
Scan order                               : Bottom Field First
Compression mode                         : Lossy
Bits/(Pixel*Frame)                       : 0.516
Time code of first frame                 : 00:00:00:00
Time code source                         : Group of pictures header
GOP, Open/Closed                         : Open
GOP, Open/Closed of first frame          : Closed
Stream size                              : 2.71 GiB (94%)
Writing library                          : Created by NeMpeg2Enc (2016-01-16T01-09-59)

Audio
ID                                       : 189 (0xBD)-128 (0x80)
Format                                   : AC-3
Format/Info                              : Audio Coding 3
Mode extension                           : CM (complete main)
Format settings, Endianness              : Big
Muxing mode                              : DVD-Video
Duration                                 : 1h 12mn
Bit rate mode                            : Constant
Bit rate                                 : 256 Kbps
Channel(s)                               : 2 channels
Channel positions                        : Front: L R
Sampling rate                            : 48.0 KHz
Compression mode                         : Lossy
Delay relative to video                  : -43ms
Stream size                              : 133 MiB (4%)

All About Eve - Town & Country Club Kentish Town, London, UK - 14.09.1991 (Flac)



Lossy sourced but sounding great. Thanks to the original uploader.

Broadcast on  BBC Radio 6 "The Live Hour" BBC 320kbps stream master

BBC 320kbps AAC/Web PVR Manager/Adobe Audition cc>Tracks>fades>phase correction>Flac
SBE fix/Checksum files done in Traders Little Helper

32 minutes of gig broadcast on  BBC Radio 6 "The Live Hour" 2016-06-07

Tracklist:
01  intro
02  Strange way / Share it with me / Wild hearted woman
03  Touched by Jesus
04  Rhythm of life
05  Every Angel
06  outro

The Ramones - Old Grey Whistle Test, London, UK - 16.02.1985 (MPG)







Thanks to the anonimous collaborator for sending me this videos to share here.

Tracklist:
Warthog
Chasing The Night
Mama's Boy (incomplete)

Time 7.11 min
-----------------------------------------------------------
Bonus:

Old Grey Whistle Test - 22 January 1985
Interview

Time: 1.56 min

UNKLE - Izvetia Hall, Moscow, Russia - 06.02.2016 (Flac)



Sound is a bit rough, but it's quite difficult to find UNKLE live recordings, so here's one to satisfy your curiosity of how rhe band sounds live. Thanks to the taper for sharing his recording.

Setlist:

01. Eye For An Eye
02. Hold My Hand
03. Mayday
04. Restless
05. Burn My Shadow
06. Lonely Soul
07. Morning Rage
08. With You In My Head
09. No Where To Run
10. Be There (Underdog Remix)
11. Blue And Yellow
12. I Feel Love (Donna Summer Cover)
13. Touch Me (Rui Da Silva Cover)
14. Reign
15. Heaven
16. In A State
17. The Answer

RE-UPLOAD: Joe Strummer - When Pigs Fly (Unreleased soundtrack for the film) - 1993 (Flac)


This is just awesome. A MILLLION THANKS ar not enough to thank kinmount for sharing this pearl on DIME.

Original Info File:

Perfect Sound Forever: For most of the '90's, you were outside of the public spotlight. What were you up to?

Joe Strummer: Well, there's a nice hammock in my yard, made from Guyanese mountain goat wool. (laughs) I am a lazy sod though - let's put that down front. And I also did a lot of weird things. I was always involved in things that never came out, like a jinx dare I say it. Like for example, I took eight months to do a score for a film called When Pigs Fly. There's talk of releasing the score (now). I did it all, front to back for the whole picture. The film couldn't get any distribution - they showed it at festivals here and there but nothing happened. Probably had one or two showings in its life. But there's talk now that they wanna put the score out. It's a lost body of my work, if I may use such a phrase! That probably took a year to come out of my head and that never came out.

The above quote, from a 1999 interview with Perfect Sound Forever's editor Jason Gross, describes what happened to this missing piece of Strummer history. Recorded in 1993 during Strummer's un-years, these songs were intended for use in the ultimately unreleased movie When Pigs Fly, directed by Sara Driver, longtime partner of Jim Jarmusch. If one is diligent enough, it's possible to locate most of these tracks, however it's not terribly easy. And I'm not counting crappy home made video versions on YouTube.

I obtained these back in the mid-90's when someone gave me a cassette of them. There are eight tracks in all:

01. When Pigs Fly (vocal)
02. Pouring Rain (vocal)
03. Rose of Erin (vocal)
04. Ellis Island Line (instrumental)
05. Phantom County Fair (instrumental)
06. Storm In A D-Cup (instrumental)
07. Free At Last (vocal)
08. When Pigs Fly (instrumental)

Throwing Muses - Snap, KCRW, Santa Monica, USA - 27.05.1991 (Flac)



Good FM capture. Thanks to the original uploader.

Original info file :

Tape received in a trade; don't know the generation but quality is very good.

tape>Audacity>TLH>flac8>Dime>you

Probably one of the last performances with Tanya Donelly.

01. Not too soon
02. Counting backwards
03. Say goodbye
04. Devil's roof
05. Graffiti

K. Hersh, vocal, guitar
T. Donelly guitar, vocal
F. Abong bass
D. Narcizo drums



RE-UPLOAD: The Electric Hellfire Club - Milwaulkee, USA - 12.08.1994 (MP3)



Another band I was trying for ages to get a bootleg to post here. Thanks to cEnda for sending me this recording. The date is from a Christian Death concert, since the band was supporting them at the time, this is a guess. Average sound.

01. Running with the Devil
02. Where Violence is Golden
03. Psychedelic Sacrifice
04. Electric Hellfire Acis Test
05. Black Bus
06. Invocation / Age of Fire
07. Fall From Grace

Tuesday, 14 June 2016

The Sisters Of Mercy - Bradford University, Bradford, UK - 15.05.1984 (Flac)



HUGE Thanks to Dan for sharing this rip on the TSOM 1981.1985 Facebook group.

Original Info File:

Setlist:

01 Burn
02 Heartland
03 Walk Away
04 Anaconda
05 Body & Soul
06 Floorshow
07 Emma
08 Adrenochrome
09 Alice
10 Body Electric
(encore 1)
11 Gimme Shelter
(encore 2)
12 Ghostrider

Length: 53:55

Cassette (audience, low gen?, TDK D60 from a record fair in 1991) > wav > Soundforge(normalise uneven L&R channels, manually remove approx 35 clicks by redrawing with the pen tool) > CDWave(split on sector boundaries) > flac(6) (> flacs tagged with winamp)

Tape flip between Emma & Adrenochrome.  Emma ends abruptly and a few seconds of the Adrenochrome intro are missing.
Before Gimme Shelter you'll hear the most goth comment ever heard at a Sisters gig from an audience member: "Where's my big top (h)at?".

Very good audience recording, not a soundboard as some have thought.  Listen to the audience comments, a soundboard wouldn't pick those up so clearly.  Also notice the moments when the taper moves the orientation of the mic and the quality shifts slightly, for example at 2:23 in Heartland, and also during Body & Soul.

IDENTIFIERS (spoken between songs or during the start of the next song):

01 Burn
"Thanks ... 25 eh? ... Heartland"
02 Heartland
"Thanks ... (eat some)(?)"
03 Walk Away
"Thanks ... Anaconda"
04 Anaconda
"I'm sorry about this moat."
05 Body & Soul
"Thanks. ... yeah ... Floorshow"
06 Floorshow
07 Emma
(tape flip)
"Adrenochrome"
08 Adrenochrome
"You what? ... Alice"
09 Alice
"Body Electric"
10 Body Electric
"Bye bye"
(cut)
"I dressed on clock(clonk?)."
Audience member: "Where's my big top 'at?"
"Gimme Shelter"
11 Gimme Shelter
"Thankyou, bye bye,"
(cut)
Audience member into stage mic: "Andrew, shout for Andrew, Andrew! Andrew, happy Birthday! Happy Birthday! It's his birthday!"
"Never seen the man before in my life!"
12 Ghostrider


The Cult - On TV - Part 2 - 1985 -1986 (ProShot DVD)

 





 Second part of the The Cult TV appearences collection. Thanks to the anonimous collaborator for sending me these videos to share here.

Contents

Countdown - XX.XX.1985
She Sells Sanctuary

Provinssirock, Seinajoki, Finland - 08.06.1986
Love
Love Removal Machine
Electric Ocean
Hollow Man
Rain
She Sell's Sanctuary

Top Of The Pops - 10.10.1985
Rain

Palasport, Bologna, Italy - 24.05.1986
Nirvana
Spiritwalker
Phoenix
Wild Thing

Saturday Night Live - 21.12.1985
She Sells Sanctuary


The Cure - Fiddler's Green Ampitheater, Englewood, USA - 05.06.2016 (Flac)



Very Good sound. Thanks to the original uploader on TTD.

### Feel free to share, remaster, remix, sample, reverse it and check for Satanic messages, or whatever else you want to do with this recording...just don't sell it. Thanks and enjoy. ###

SOURCE: Nevaton MCE400 > Naiant Tinybox > Sony M10 (@24/48)

CONVERSION: Wavelab 6.0 (Waves Q10 Paragraphic EQ > Waves L3 Multimaximizer) > CD Wave (tracking) > Traders Little Helper (FLAC level 8) > foobar2000 (tagging)

SETLIST:

1. Out of this World
2. Pictures of You
3. Closedown
4. High
5. Lovesong
6. Just Like Heaven
7. The Last Day of Summer
8. Cold
9. A Strange Day
10. A Night Like This
11. Push
12. Inbetween Days
13. Fascination Street
14. The Hungry Ghost
15. 39
16. Bloodflowers

ENCORE 1:

17. It Can Never Be The Same
18. Want
19. Shake Dog Shake
20. Burn

ENCORE 2:

21. At Night
22. M
23. Play For Today
24. A Forest

ENCORE 3:

25. Hot Hot Hot !!! @
26. The Caterpillar
27. The Walk
28. Let's Go To Bed

ENCORE 4:

29. Lullaby
30. Close To Me
31. Why Can't I Be You?
32. Boy's Don't Cry

NOTES: @ Something was wrong with Robert's guitar and he tossed it on the ground. He sang a verse or 2 without a guitar before it could be replaced.

Also appologies for the talkers near me. Luckily I couldn't hear them during the show, but my mics picked them up.

RE-UPLOAD: SPK - The Tube, Tyne Tees, Newcastle Upon Tyne, UK - 04.11.1983 (MPG)






Thanks to the anonimous collaborator for sending me this video to share here.

Lineage: VHS(0) -> Panasonic NV-HS860 -> EZCAP With Arcsoft Showbiz -> MPEG2

Tracklist:
Metal Dance

Time: 4.30 min

Format                                   : MPEG-PS
File size                                : 139 MiB
Duration                                 : 4mn 30s
Overall bit rate                         : 4 300 Kbps
Writing library                          : ArcSoft MPEG-2 NTSC

Video
ID                                       : 224 (0xE0)
Format                                   : MPEG Video
Format version                           : Version 2
Format profile                           : Main@Main
Format settings, BVOP                    : Yes
Format settings, Matrix                  : Custom
Format settings, GOP                     : M=3, N=15
Duration                                 : 4mn 30s
Bit rate                                 : 4 096 Kbps
Width                                    : 640 pixels
Height                                   : 480 pixels
Display aspect ratio                     : 4:3
Frame rate                               : 29.970 fps
Standard                                 : NTSC
Color space                              : YUV
Chroma subsampling                       : 4:2:0
Bit depth                                : 8 bits
Scan type                                : Progressive
Compression mode                         : Lossy
Bits/(Pixel*Frame)                       : 0.445
Time code of first frame                 : 00:00:00:00
Time code source                         : Group of pictures header
GOP, Open/Closed                         : Open
Stream size                              : 132 MiB (95%)
Writing library                          : ArcSoft MPEG-2 NTSC
Color primaries                          : BT.470 System M
Transfer characteristics                 : BT.470 System M
Matrix coefficients                      : BT.601

Audio
ID                                       : 192 (0xC0)
Format                                   : MPEG Audio
Format version                           : Version 1
Format profile                           : Layer 2
Duration                                 : 4mn 30s
Bit rate mode                            : Constant
Bit rate                                 : 128 Kbps
Channel(s)                               : 2 channels
Sampling rate                            : 44.1 KHz
Compression mode                         : Lossy
Stream size                              : 4.13 MiB (3%)

RE-UPLOAD: Lords Of Acid - Ogden Theatre, Denver, USA - 21.07.2010 (MP3)



And a contribution from Kronfeld to this month's theme, but it could have been for last month's theme also, since Lords of Acid are an industrial band, I was wanting to post something from them for some time now, so a Big Thanks You to him. Good sound and incomplete setlist if someone couls help with the correct setlist it would be great. Kronfeld Raised the audio level a bit but that's the only difference from the original.


Setlist includes:

Spank My Booty
Pussy
I Sit On Acid
The Crablouse
Scrood bi-U
The Most Wonderful Girl
Let's Get HIgh
Lover
LSD=Truth
Rough Sex/Take Control
plus some more songs that aren't identified.


Monica Richards - InfraWarrior (Free Download/Name Your Price)



Best known for her musical work as half of the critically acclaimed duo, Faith and the Muse, and her own solo releases, Monica is a composer, writer and artist living near Los Angeles.

This is a 12-track version, missing 2 Cover Songs as Bandcamp does not allow them to be uploaded. I have made the actual CD available, should you wish to purchase the complete album.

"Much of what the Warrior knows she cannot tell, so she tells a little of everything in many places, scattering her knowledge so it is known by no one but is spoken of everywhere."
- Bill Mollison

credits

released October 31, 2007

CHAD BLINMAN
Drums on "Into My Own"
Recorded @ The Eyesocket, Venice, CA

CURSE
Percussion on "Fell To Regret"

WILLIAM FAITH
Bass on "Fell To Regret", "A Good Thing", "Into My Own"
Guitars on "In Answer", "Into My Own", "A Good Thing"
Percussion on "Gaia", "I Am Warrior", "Fell To Regret", "In Answer", "Into My Own", "Death..." and "A Good Thing"

MATT HOWDEN
Violins on "Fell To Regret"
Recorded @ Redroom Studio, Sheffield, England

JARBOE
Sea Goddess Voice on "Sedna"
Recorded by Mosquito @ Blurred Wren Studio, GA

KAMBRIEL
Arabic Violin on "Fell To Regret"

kaRIN
Siren Vocals on "In Answer"
Recorded by Statik @ Noiseplus Music, N. Hollywood, CA

LUSTMORD
Music for "The Hunt"
Produced by B. Lustmord at Vaultworks

BETSY MARTIN
Guest Vocals & Fellow Strangeling on "A Good Thing"
Recorded by Kevin Kipnis @ Boxfullakitties Studio, N. Hollywood, CA

PAUL MERCER
Violins & Violas on "Sedna", "Into My Own" & "The Turnaway"
Recorded by Bruce Bennett @ Bruce Bennett Studios, Atlanta, GA

FRED 'FREAK' SMITH
Heavy Guitars on "Into My Own"

DAVIS PETTERSON
Percussion on "Sedna", "Into My Own" & "The Turnaway"
Recorded by Bruce Bennett @ Bruce Bennett Studios, Atlanta, GA

MARZIA RANGEL
Cellos on "In Answer", "Fell To Regret", "Sedna" & "Into My Own"

LLOYD RICHARDS
Spoken Word on "Gaia"

MaLGORZATA D. WACHT
Recorded by Brian Hunter @ The Mousetrap Recording Studio, Denver, CO
----
Recorded & Produced by William Faith
Additonal Programming/Instrumentation by William Faith
All Music Recorded @ Wisperthal Studio, Los Angeles, CA
Except for specified Special Guest credits

Mixed by Chad Blinman
Additonal Programming by Chad Blinman
@ The Eyesocket, Venice, CA

Mastered by Joe Gastwirt
@ Joe Gastwirt Mastering, Oak Park, CA

All Music & Lyrics by Monica Richards
© & p Elyrian Music/BMI - 2006
Except:
Words for "Gaia" - Lloyd Richards
Music for "The Hunt" - Lustmord (B. Lustmord - BMI)
"We Are the One" - Houston/Ingraham/O'Brien/Wilsey
Lyrics to "Like Animals" - Leslie Bricusse (Hastings Music Corp. - BMI) 
 

Child Of Caeser - Love In Black (Free Download)



Free until the end of the month, the first album from this german gothic band. Get it while you can.

Moby - Long Ambients 1: Calm, Sleep (Free Download)



A free download from Moby:

over the last couple of years i’ve been making really really really quiet music to listen to when i do yoga or sleep or meditate or panic. i ended up with 4 hours of music and have decided to give it away.
you can download it for free below or stream it on spotify, soundcloud, apple music, deezer & tidal.
it’s really quiet: no drums, no vocals, just very slow calm pretty chords and sounds and things for sleeping and yoga and etc. and feel free to share it or give it away or whatever, it’s not protected or anything, or at least it shouldn’t be.
thanks
moby