Thursday, 20 July 2017

Kirlian Camera - Invitation Festival, Gent, Belgium - 06.03.2006 (DVD)








Excellent quality, shot from the back on a tripod. Thanks to KCfan for sharing another DVD here with us.

Setlist:

Intro (Gloria)
Days To Come
News
Dead Zone In The Sky
The Desert Inside
Absentee-S
Fields Of Sunset
In The Endless Rain
The Unreachaable One
Blue Room
Erinnerung
Eclipse
Heldenplatz

Do Not Sell!
Enjoy

Video
Format                                   : MPEG Video
Format version                           : Version 2
Format profile                           : Main@Main
Format settings, BVOP                    : Yes
Format settings, Matrix                  : Default
Format settings, GOP                     : M=3, N=12
Bit rate                                 : 7 100 Kbps
Width                                    : 720 pixels
Height                                   : 576 pixels
Display aspect ratio                     : 4:3
Frame rate                               : 25.000 fps
Standard                                 : PAL
Color space                              : YUV
Chroma subsampling                       : 4:2:0
Bit depth                                : 8 bits
Scan type                                : Progressive
Compression mode                         : Lossy
Bits/(Pixel*Frame)                       : 0.685
Time code of first frame                 : 00:00:00:00
Time code source                         : Group of pictures header
GOP, Open/Closed                         : Open
GOP, Open/Closed of first frame          : Closed
Stream size                              : 787 MiB (81%)
Color primaries                          : BT.601 PAL
Transfer characteristics                 : BT.470 System B, BT.470 System G
Matrix coefficients                      : BT.601

Audio
ID                                       : 189 (0xBD)-160 (0xA0)
Format                                   : PCM
Format settings, Endianness              : Big
Format settings, Sign                    : Signed
Muxing mode                              : DVD-Video
Bit rate mode                            : Constant
Bit rate                                 : 1 536 Kbps
Channel(s)                               : 2 channels
Sampling rate                            : 48.0 KHz
Bit depth                                : 16 bits
Stream size                              : 170 MiB (17%)



part1
part2
part3
part4
part5
part6

No comments:

Post a Comment