Monday, 26 June 2017

RE-UPLOAD: The Sisters of Mercy - King Georges Hall, Blackburn, UK - 21.03.1985 (Flac)



This is the only time the band played "Stairway To Heaven" as a stand alone track, even if they give up just after 2 minutes... Another upgrade to Flac. Thanks to the original uploader.


Original Info File:

Lineage: Cassette (unknown gen) > ION Tape2PC Deck > Audacity > CD Wave > TLH (Flac Lvl 6) > Dime

Bought at a records fair in Derby sometime in 1987

Along with the Stuttgart 1984-11-12 show, this is possibly my favourite Sisters bootleg,
some great between-song banter from Eldritch.This is a great sounding show, at times it's
like a soundboard. This doesn't seem to circulate as much as some of the others from this
tour like the Lyceum, Newcastle and Brighton shows. Any show with 'Some Kind of Stranger'
deserves a listen and add 'Stairway' in there with the priceless, 'There's a bus goes now from
out there and you'd be advised...' intro and you've got a must have show.

Scan of tape inlay included.


Enjoy.

Please do not sell, mp3 for personal use only.


01. Intro
02. First and Last and Always
03. Body and Soul
04. Train
05. Marian
06. No Time To Cry
07. Possession
08. Walk Away
09. Burn
10. Emma
11. Amphetamine Logic
12. A Rock & A Hard Place
13. Floorshow
14. Alice (Cuts In)
15. Body Electric
16. Gimme Shelter
17. Some Kind Of Stranger
18. Stairway To Heaven
19. Sister Ray



Einsturzende Neubauten - Kölner Philharmonie, Cologne, Germany - 03.05.2017 (1080p)







As requested. Thanks to the original uploader on Dime.

Lineage: Webcast -> mp4
Video: MPEG4 Video (H264) 1920x1080 16:9 5000 Kbps 25.00 fps
Audio: AAC 165 Kbps 48.0 KHz stereo

Setlist:
The Garden
Haus der Lüge
Let's Do It a Dada
Dead Friends (Around the Corner)
Unvollständigkeit
Youme & Meyou
Die Befindlichkeit des Landes
Sonnenbarke
Halber Mensch / Von Wegen
Sabrina
Susej
How Did I Die?
Encore:
Silence Is Sexy
Die Interimsliebenden
Total Eclipse of the Sun
Encore 2:
Ein leichtes leises Säuseln
Redukt

Swans - NOS Primavera Sound, Porto, Portugal - 09.06.2017 (720p)







Thanks to indykid for capturing and sharing on Dime.

Lineage: LIVE Webcast -> Livestreamer -> FFmpeg (edit) -> .ts
Video: MPEG4 Video (H264) 1280x720 2850 Kbps 25.00 fps
Audio: AAC 192 Kbps 48.0 KHz stereo

Setlist:
The Knot
Screen Shot
Cloud of Unknowing
The Man Who Refused to Be Unhappy
The Glowing Man

TRT = 01:27:53

Captured and uploaded to DIME by indykid.

MediaInfo:
General
ID                          : 1 (0x1)
Complete name               : Swans - 2016-06-09 NOS Primavera Sound, Porto, Portugal [720p].ts
Format                      : MPEG-TS
File size                   : 1.85 GiB
Duration                    : 1 h 27 min
Overall bit rate mode       : Variable
Overall bit rate            : 3 020 kb/s

Video
ID                          : 256 (0x100)
Menu ID                     : 1 (0x1)
Format                      : AVC
Format/Info                 : Advanced Video Codec
Format profile              : Main@L3.1
Format settings, CABAC      : Yes
Format settings, ReFrames   : 2 frames
Format settings, GOP        : M=1, N=50
Codec ID                    : 27
Duration                    : 1 h 27 min
Bit rate mode               : Constant
Nominal bit rate            : 2 584 kb/s
Width                       : 1 280 pixels
Height                      : 720 pixels
Display aspect ratio        : 16:9
Frame rate                  : 25.000 FPS
Color space                 : YUV
Chroma subsampling          : 4:2:0
Bit depth                   : 8 bits
Scan type                   : Progressive
Bits/(Pixel*Frame)          : 0.112

Audio
ID                          : 257 (0x101)
Menu ID                     : 1 (0x1)
Format                      : AAC
Format/Info                 : Advanced Audio Codec
Format version              : Version 4
Format profile              : LC
Muxing mode                 : ADTS
Codec ID                    : 15
Duration                    : 1 h 27 min
Bit rate mode               : Variable
Channel(s)                  : 2 channels
Channel positions           : Front: L R
Sampling rate               : 48.0 kHz
Frame rate                  : 46.875 FPS (1024 spf)
Compression mode            : Lossy
Delay relative to video     : -1 s 633 ms

Menu
ID                          : 4096 (0x1000)
Menu ID                     : 1 (0x1)
Duration                    : 1 h 27 min
List                        : 256 (0x100) (AVC) / 257 (0x101) (AAC)
Service name                : Service01
Service provider            : FFmpeg
Service type                : digital television

Captured and uploaded to DIME by indykid.

The Birthday Party - Lyceum Ballroom ,London, UK - 07.03.1983 (Flac)




Good Audience Recording.Thanks to the original poster.

Original Info File:

Lineage: 2nd Gen Cassette>CDR>EAC>WAV>TLH>You

This is taken from one of the 'Camden Market Cassettes' that I used to purchase back in the early 80's. Given that it is almost 34 years old, there are a couple of minor dropouts in the tape. Nothing awful though.

I ran it from a Technics cassette deck via a graphic equalizer and a Behringer audio enhancer & processor to the CDR recorder. If anyone wants to mess around with the sound, feel free. Just don't mp3 it unless for personal use. Hopefully I have the tracklisting correctly identified.

1.Hamlet (Pow Pow Pow) (cuts in)
2.Pleasure Avalanche
3.Say A Spell
4.Dead Joe
5.6" Gold Blade
6.Swampland
7.Fears Of Gun
8.Deep In The Woods
9.The Six Strings That Drew Blood
10.Sonny's Burning
11.Big Jesus Trashcan
12.She's Hit

Nick Cave - Vocals
Rowland S. Howard - Guitar
Tracey Pew - Bass
Mick Harvey - Drums

Death In June / NON / Der Blutharsch / Forseti - Der Tod Im Juni Festival, Burg Falkenstein, Harz, Germany - 05.06.1999 (Flac)




Very good sound. Thanks to KCfan for sending it to me to share here.


CD 1

Death In June (Set 1)
01. The Honour Of Silence    
02. Rocking Horse Night         
03. Fall Apart    
04. Runes and Men       

Forseti
05. Untitled         
06. Untitled    
07. Untitled         
08. Untitled       

Der Blutharsch   
09. Untitled
10. Untitled         
11. Untitled             
12. Untitled              
13. Untitled             
14. Untitled    
15. Untitled   
16. Untitled    
17. Untitled   
18. Untitled    

NON
19. Untitled   
20. Everlasting Fire       
21. Untitled       
22. Total War       
23. Untitled   

CD 2

Death In June (Set 2)
01. Smashed To Bits (In The Peace Of The Night)    
02. Death Of A Man    
03. Bring In The Night    
04. The Bunker    
05. Only Europa Knows    
06. Despair    
07. Little Blue Butterfly    
08. Frost Flowers    
09. Little Black Angel    
10. Death Of The West    
11. Kameradschaft    
12. Giddy Giddy Carousel    
13. Ku Ku Ku    
14. Rose Clouds Of Holocaust    
15. Hullo Angel    
16. Luther's Army    
17. Symbols Of The Sun    
18. Fields Of Rape    
19. Heaven Street    
20. C'est Un Rêve    


The Damned - Hellfest, Clisson, France - 16.06.2017 (MKV)







Thanks to SBR1Z for capturing and sharing on Dime.

Lineage: Arte Concert REPLAY Webcast > Livestreamer > Avidemux > .mkv

Video: H264/1280x720p/25fps/2584Kbps
Audio: AAC/2.0/48KHz/192Kbps

Setlist:
Melody Lee
Nasty
Born to Kill
I Just Can't Be Happy Today
Love Song
Machine Gun Etiquette
Ignite
Anti-Pope
Wait for the Blackout
New Rose
The History of the World (Part 1)
Neat Neat Neat
Fan Club
1 of the 2
Disco Man
Smash It Up

Length: 01:02:48
_____
SBR1Z
2017

Pop Will Eat Itself - Night Network TV Studio, London, UK - 20.02.1988 (MPG)







Thanks to the anonimous collaborator for sending me this video to share here.

Lineage: TV broadcast -> VHS (0)-> Panasonic NV-HS860 -> EZCAP With Arcsoft Showbiz -> MPG

Tracklist:
Grebo Guru
There Is No Love Between Us Any More
She's Surreal
Hit the Hi-Tech Groove

Total Time. 15min 51s

Do Not Sell!
Enjoy.

Format                                   : MPEG-PS
File size                                : 488 MiB
Duration                                 : 15mn 51s
Overall bit rate                         : 4 299 Kbps
Writing library                          : ArcSoft MPEG-2 NTSC

Video
ID                                       : 224 (0xE0)
Format                                   : MPEG Video
Format version                           : Version 2
Format profile                           : Main@Main
Format settings, BVOP                    : Yes
Format settings, Matrix                  : Custom
Format settings, GOP                     : M=3, N=15
Duration                                 : 15mn 51s
Bit rate                                 : 4 096 Kbps
Width                                    : 640 pixels
Height                                   : 480 pixels
Display aspect ratio                     : 4:3
Frame rate                               : 29.970 fps
Standard                                 : NTSC
Color space                              : YUV
Chroma subsampling                       : 4:2:0
Bit depth                                : 8 bits
Scan type                                : Progressive
Compression mode                         : Lossy
Bits/(Pixel*Frame)                       : 0.445
Time code of first frame                 : 00:00:00:00
Time code source                         : Group of pictures header
GOP, Open/Closed                         : Open
Stream size                              : 463 MiB (95%)
Writing library                          : ArcSoft MPEG-2 NTSC
Color primaries                          : BT.470 System M
Transfer characteristics                 : BT.470 System M
Matrix coefficients                      : BT.601

Audio
ID                                       : 192 (0xC0)
Format                                   : MPEG Audio
Format version                           : Version 1
Format profile                           : Layer 2
Duration                                 : 15mn 51s
Bit rate mode                            : Constant
Bit rate                                 : 128 Kbps
Channel(s)                               : 2 channels
Sampling rate                            : 44.1 KHz
Compression mode                         : Lossy
Stream size                              : 14.5 MiB (3%)

RE-UPLOAD: Dead Can Dance - Coliseu, Lisboa, Portugal - 28.05.2013 (Flac)


My master, hope you like it :)


Very similar setlist to the 2012 concerts, but with Black Sun and Cantara.

Taper: circle
Gear: Sony MZ-RH10 HiMD + Sony ECM-717 Mic
Lineage: MD -> M-Audio Quattro -> Audacity (normalize,  tracksplitting and fades) -> TLH -> Flac (level 8)

Setlist:

01. Children of The Sun
02. Agape
03. Rakim
04. Kiko
05. Amnesia
06. Sanvean
07. Black Sun
08. Nierika
09. Opium
10. The Host Of Seraphim
11. Ime Prezakias
12. Cantara
13. All In Good Time
14. The Ubiquitous Mr. Lovegrove
15. Dreams Made Flesh
16. Song To The Siren
17. The Return of The She-King

Do Not Sell!
Share and Enjoy.

RE-UPLOAD: The Kills - Black Session, Paris, France - 27.03.2003 (Flac)



Very good FM broadcast. Thanks to the original uploader.

fm > dat > cdr > eac > shn > flac
(cleaning version with "cool edit")

Tracklist:


01 Superstition
02 Pull A U
03 Cat Claw
04 Fuck The People
05 Monkey 23
06 Kissy Kissy
07 Hitched
08 Fried My Little Brain
09 Black Rooster
10 Drop Out Boogie

RE-UPLOAD: 65daysofstatic - The Wolstein Center, CSU, Cleveland, USA - 18.06.2008 (Flac)


Very good band, that supported the Cure on their 2008 tour. Thanks to sisteruli for this one and Nikres for taping and sharing it first.

Source: Dynamic Audio Binaurals > M-Audio Microtrack II
Split with CD WAV, Encoded with Flac 16
Location: Section 104 Row L Seat 1
Recorded by Nikres

1. Drove Through Ghosts to Get Here
2. I Swallowed Hard Like I Understood
3. Fix the Sky a Little
4. Install a Beak in the Heart that Clucks Time in Arabic
5. This Cat is a Landmine
6. Retreat! Retreat!
7. Radio Protector

Friday, 16 June 2017

The Sisters Of Mercy - Wembley Arena, London, UK - 26.11.1990 (MKV)








Huge THANKS to the anonimous collaboratorfor sending me this high quality rip of the master video 8 tape. It's as good as it gets for this particular video, in my opinion.


Lineage: Video 8 Master Tape --> Sony EV S9000E --> DataVideo TBC 3000 --> BlackMagic Intensity Pro --> VirtualDub X264 Codec - > MKVToolNixGUI

Setlist:

01. First and Last and Always
02. Lucretia My Reflection
03. Body and Soul
04. Detonation Boulevard
05. Ribbons
06. Dominion/Mother Russia
07. Flood II
08. Valentine
09. Heartland
10. Doctor Jeep
11. Body Electric
12. Amphetamine Logic
13. Marian
14. Alice
15. Gimme Shelter
16. This Corrosion
17. Something Fast
18. Temple of Love
19. Vision Thing
20. 1969

Total Time: 1h 42m


Do Not Sell!
Support The Band by buying official products.
Enjoy.

Format                                   : Matroska
Format version                           : Version 4 / Version 2
File size                                : 8.27 GiB
Duration                                 : 1h 42mn
Overall bit rate                         : 11.5 Mbps
Encoded date                             : UTC 2017-06-04 18:40:45
Writing application                      : mkvmerge v12.0.0 ('Trust / Lust') 64bit
Writing library                          : libebml v1.3.4 + libmatroska v1.4.5
DURATION                                 : 01:42:29.280000000
NUMBER_OF_FRAMES                         : 196777
NUMBER_OF_BYTES                          : 1180661760
_STATISTICS_WRITING_APP                  : mkvmerge v12.0.0 ('Trust / Lust') 64bit
_STATISTICS_WRITING_DATE_UTC             : 2017-06-04 18:40:45
_STATISTICS_TAGS                         : BPS DURATION NUMBER_OF_FRAMES NUMBER_OF_BYTES

Video
ID                                       : 1
Format                                   : AVC
Format/Info                              : Advanced Video Codec
Format profile                           : High@L3.2
Format settings, CABAC                   : Yes
Format settings, ReFrames                : 4 frames
Codec ID                                 : V_MPEG4/ISO/AVC
Duration                                 : 1h 42mn
Nominal bit rate                         : 10 000 Kbps
Width                                    : 720 pixels
Height                                   : 576 pixels
Display aspect ratio                     : 5:4
Frame rate mode                          : Constant
Frame rate                               : 25.000 fps
Standard                                 : PAL
Color space                              : YUV
Chroma subsampling                       : 4:2:0
Bit depth                                : 8 bits
Scan type                                : Progressive
Bits/(Pixel*Frame)                       : 0.965
Writing library                          : x264 core 148 r2694bm 3b70645
Default                                  : Yes
Forced                                   : No

Audio
ID                                       : 2
Format                                   : PCM
Codec ID                                 : A_PCM/INT/LIT
Duration                                 : 1h 42mn
Bit rate mode                            : Constant
Channel(s)                               : 2 channels
Sampling rate                            : 48.0 KHz
Bit depth                                : 16 bits
Default                                  : Yes
Forced                                   : No

Einstürzende Neubauten - Grande Halle de la Villette, Paris, France - 28.05.2017 (MP4)






From ARTE website

Setlist:
The Garden
Haus der Lüge
Nagorny Karabach
Dead Friends (Around the Corner)
Unvollständigkeit
Youme & Meyou
Die Befindlichkeit des Landes
Sonnenbarke
Von wegen (with 'Halber Mensch' intro)
Sabrina
Susej
How Did I Die?
Silence Is Sexy
Let's Do It a Dada
Total Eclipse of the Sun
Salamandrina
Redukt

Format                                   : MPEG-4
Format profile                           : Base Media
Codec ID                                 : isom
File size                                : 2.11 GiB
Duration                                 : 2h 0mn
Overall bit rate mode                    : Variable
Overall bit rate                         : 2 503 Kbps

Video
ID                                       : 1
Format                                   : AVC
Format/Info                              : Advanced Video Codec
Format profile                           : Main@L3.1
Format settings, CABAC                   : Yes
Format settings, ReFrames                : 3 frames
Codec ID                                 : avc1
Codec ID/Info                            : Advanced Video Coding
Duration                                 : 2h 0mn
Source duration                          : 2h 0mn
Bit rate                                 : 2 363 Kbps
Width                                    : 1 280 pixels
Height                                   : 720 pixels
Display aspect ratio                     : 16:9
Frame rate mode                          : Variable
Frame rate                               : 25.000 fps
Minimum frame rate                       : 5.000 fps
Maximum frame rate                       : 100.000 fps
Standard                                 : PAL
Color space                              : YUV
Chroma subsampling                       : 4:2:0
Bit depth                                : 8 bits
Scan type                                : Progressive
Bits/(Pixel*Frame)                       : 0.103
Stream size                              : 2.00 GiB (94%)
Source stream size                       : 2.00 GiB (94%)
Color range                              : Limited
mdhd_Duration                            : 7255680

Audio
ID                                       : 2
Format                                   : AAC
Format/Info                              : Advanced Audio Codec
Format profile                           : LC
Codec ID                                 : 40
Duration                                 : 2h 0mn
Bit rate mode                            : Variable
Bit rate                                 : 125 Kbps
Maximum bit rate                         : 222 Kbps
Channel(s)                               : 2 channels
Channel positions                        : Front: L R
Sampling rate                            : 48.0 KHz
Compression mode                         : Lossy
Stream size                              : 108 MiB (5%)


RE-UPLOAD: New Order - The Palace, Hollywood, USA - 04.11.1986 (Flac)




Excellent Soundboard, including my favourite track from the 2Brotherhood" LP, "Every Little Counts". Thanks to the original uploader.

Setlist:

01 - Shellshock
02 - Everything's Gone Green
03 - Ceremony
04 - Every Little Counts
05 - Leave Me alone
06 - Thieves Like Us
07 - Way Of Life
08 - Face-Up
09 - Temptation
10 - Confusion
11 - Blue Monday (Fade out)


Kirlian Camera - Magnet Club, Berlin, Germany - 01.10.2003 (Flac)


Very good audience recording. Thanks to KCfan for sending this one to share here.

Lineage:AUD1 DAT -> CD -> TLH -> Flac (8)

Setlist:

01. Gloria (re-read / Vivaldi)
02. Days To Come
03. News (V.2001)
04. Dead Zone In The Sky (V.3)
05. The Desert Inside
06. Absentee-s
07. Fields Of Sunset (Flu version...)
08. In The Endless Rain
09. The Unreachable One (V.3)
10. Blue Room (V,2003)
11. Erinnerung (V.4)
12. Eclipse (E.A.F. version)
13. Heldenplatz
14. Atmosphere (by Siderartica)

Kirlian Camera:
Angelo Berganini (synth, vocals)
Elena Alice Fossi (vocals, synth)
Andrea Fossi (synth)
Andrea Savelli (synth,acoustic guitar)

Siderartica is the same band without Angelo Berganini.

Some photos of this show are here:
http://www.darksite.ch/darklife/KCberlin2003.html

Do Not Sell!
Support the band and buy official products.
Enjoy.

Thurston Moore Band - Lauren Laverne Session, London. UK - 15.06.2017 (MP2)



Thanks to the original uploader on Dime.

Digital Satellite (live) broadcast 2017-06-15 MPEG1 layer 2 48kHz @ 160kbps:
BBC Radio 6 Music > DVB-S > TBS 6984 > DVBviewer > .mp2 >
Mpeg2Schnitt (trimming) > .mp2. Tags added with Mp3tag.

  1. Interview
  2. Cease Fire
  3. Interview                            14:46
//
  4. Interview
  5. Smoke Of Dreams
  6. Closing Comments                     14:31
Total Time : [29:27]

https://www.thurstonmoore.com/


Combichrist - Wacken Open Air, Wacken, Germany - 30.07.2015 (1080p)







Very good video. Thanks to SBE1Z for sharing on Dime.

Lineage: YouTube Webcast > youtube-dl > MKVToolNix GUI > .mkv

Video: H264/1920x1080p/25fps/3600Kbps
Audio: AAC/2.0/44.1KHz/128Kbps

Setlist:
We Were Made to Love You
Just Like Me
No Redemption
Zombie Fistfight
Can't Control
Maggots at the Party
Retreat Hell, Part 1
Never Surrender
Blut Royale
What the Fuck Is Wrong With You?
Love Is a Razorblade

Length: 00:43:37
_____
SBR1Z
2017


Claytown Troupe ‎– Singles 1989/1990 (Flac/MP3)






Huge thanks to RobH for sharing his collection of rare cd singles here, in Flac and MP3.


Prayer (1989)

Tracklist:
1 Prayer    
2 Chiricahua Sun    
3 Alabama (Recorded Live At Moles)    
4 Prayer (Extended Version)

Hey Lord (1989)

Tracklist:
1 Hey Lord    
2 The Night Is Ours (Extended Version)    
3 Hey Lord (12" Mix)

Ways Of Love (1990)

Tracklist:
1 Ways Of Love    
2 Heartbreaker    
3 Freedom (Live BBC Session)

Real Life (1990)

Tracklist
1 Real Life (7" Version)    
2 The Saddest Day    
3 Wonder    
4 Real Life (12" Version)