Saturday, 10 December 2016

The Sisters Of Mercy - Olympia, Liverpool, UK - 25.11.2016 (Flac)



Very Good sound. Thanks to the taper for sharing his recording on Dime.

Original Info File:

Set list

Disc 1
01 More
02 Ribbons
03 Doctor Jeep / Detonation Boulevard
04 Amphetamine Logic
05 Body Electric
06 Crash And Burn
07 Alice
08 Marian
09 No Time To Cry
10 Arms
11 Dominion / Mother Russia

Disc 2
01 Summer
02 Jihad
03 Valentine
04 Flood II
05 Something Fast
06 Lucretia My Reflection
07 Vision Thing
08 First and Last and Always
09 Temple of Love
10 This Corrosion

Band Line-up

Andrew Eldritch  - vocals
Ben Christo      - guitar
Chris Catalyst   - guitar
Doktor Avalanche - drums
Ravey Davey      – nurse to the Doktor

Sound Professionals SP-CMC-8 Microphones
Sound Professionals SP-SPSB-11 Mini Battery Module with Bass Roll-Off (16Hz)
Edirol R-09HR  44.1kHz / 16 bit
CD Wave Editor>Trader's Little Helper>FLAC level 8>Dime

At 8.50 the stage was engulfed in smoke. Twenty minutes later it was deemed dense enough for
the band to take to the stage. Andrew looked very dapper in his suit with a shaven head. The
venue was built in 1902 as an indoor circus and variety hall. Apparently, the elephants lived
in the basement and were lifted up to the auditorium. I don't think the heating system had
been upgraded since then as it was absolutely freezing throughout the evening.

Please do not sell this recording but share freely and enjoy it!

The Cure - MEO Arena, Parque das Nações, Lisboa, Portugal - 22.11.2016 (Flac 24/96)


Thanks to ziggy for sharing his recording on Dime.

Source: AUD>Zoom H2 (WAV - 48 kHz / 24 bit) rear mics mid gain
Lineage: SD Card>WAV - 48 kHz / 24 bit Wave>Nero Wave Editor for EQ, Fade in and out and track cut>dbPoweramp Music Converter>FLAC

Set list:

01. Open
02. All I Want
03. Push
04. In Between Days
05. Pictures of You
06. The Hungry Ghost
07. A Night Like This
08. The Walk
09. Primary
10. Shake Dog Shake
11. The Blood
12. The Caterpillar
13. Lovesong
14. From the Edge of the Deep Green Sea
15. One Hundred Years
16. End

Encore 1
17. Step Into the Light
18. Want
19. Burn
20. Play for Today
21. A Forest

Encore 2
22. Fascination Street
23. Freakshow
24. Friday I'm in Love
25. Just Like Heaven
26. Boys Don't Cry

Encore 3
27. Lullaby
28. Hot Hot Hot!!!
29. Let's Go to Bed
30. Close to Me
31. Why Can't I Be You?

What an amazing show this was. I enjoyed every moment of it specially the first half when finally i had a chance to listen to some of my favourite tracks live for the first time.The band was in good mood, everybody enjoying the stage. The venue really packed (not sure if it was sold out but if it wasn't was close enough)and the audience was there for them.
I recorded from the second balcony, way up high but it turned out way better than i expected. I thought the sound was good for a venue like that size and i was also in line with the high stacks of the PA and that i believe it helped a bit :-) no big audience noises during songs. Only Freakshow is cut and i left a 1 second gap in the track because i did not stop recording during encore break and then the recorder did the rendering for the track... still no feeling lost :-)
Enjoy and share
Z :-)


Cocteau Twins - Restaurang Continental, Örebro, Sweden - 25.10.1984 (MPG)






Thanks to the anonymous collaborator for sending me this video to post here.

Lineage: Swedish TV broadcast -> VHS (unknown)-> Panasonic NV-HS860 -> EZCAP With Arcsoft Showbiz -> MPG


Setlist:
The Spangle Maker
Pepper-Tree
Millimillenary
Rococo
Pearly Dewdrops Drops

Total Time: 18.26 min

Do Not Sell!
Enjoy.

Format                                   : MPEG-PS
File size                                : 704 MiB
Duration                                 : 18mn 26s
Overall bit rate mode                    : Variable
Overall bit rate                         : 5 339 Kbps
Writing library                          : ArcSoft MPEG-2 PAL

Video
ID                                       : 224 (0xE0)
Format                                   : MPEG Video
Format version                           : Version 2
Format profile                           : Main@Main
Format settings, BVOP                    : Yes
Format settings, Matrix                  : Custom
Format settings, GOP                     : M=3, N=10
Format settings, picture structure       : Frame
Duration                                 : 18mn 26s
Bit rate mode                            : Variable
Bit rate                                 : 5 009 Kbps
Maximum bit rate                         : 7 500 Kbps
Width                                    : 720 pixels
Height                                   : 576 pixels
Display aspect ratio                     : 4:3
Frame rate                               : 25.000 fps
Standard                                 : PAL
Color space                              : YUV
Chroma subsampling                       : 4:2:0
Bit depth                                : 8 bits
Scan type                                : Interlaced
Scan order                               : Top Field First
Compression mode                         : Lossy
Bits/(Pixel*Frame)                       : 0.483
Time code of first frame                 : 00:00:00:00
Time code source                         : Group of pictures header
GOP, Open/Closed                         : Closed
Stream size                              : 661 MiB (94%)
Writing library                          : ArcSoft MPEG-2 PAL
Color primaries                          : BT.601 PAL
Transfer characteristics                 : BT.470 System B, BT.470 System G
Matrix coefficients                      : BT.601

Audio
ID                                       : 192 (0xC0)
Format                                   : MPEG Audio
Format version                           : Version 1
Format profile                           : Layer 2
Duration                                 : 18mn 26s
Bit rate mode                            : Constant
Bit rate                                 : 224 Kbps
Channel(s)                               : 2 channels
Sampling rate                            : 48.0 KHz
Compression mode                         : Lossy
Stream size                              : 29.5 MiB (4%)

New Model Army - WDR Gut Drauf Studio, Germany - xx.07.1987 (MPG)





 

Thanks to the anonymous collaborator for sending me this video to share here.

Lineage: TV broadcast -> VHS (1)-> Panasonic NV-HS860 -> EZCAP With Arcsoft Showbiz -> MPG

Tracklist:
51st State
Interview
Poison Street

Total Time: 10.32 min

Do Not Sell!
Enjoy.

Format                                   : MPEG-PS
File size                                : 404 MiB
Duration                                 : 10mn 32s
Overall bit rate mode                    : Variable
Overall bit rate                         : 5 359 Kbps
Writing library                          : ArcSoft MPEG-2 PAL

Video
ID                                       : 224 (0xE0)
Format                                   : MPEG Video
Format version                           : Version 2
Format profile                           : Main@Main
Format settings, BVOP                    : Yes
Format settings, Matrix                  : Custom
Format settings, GOP                     : M=3, N=10
Format settings, picture structure       : Frame
Duration                                 : 10mn 32s
Bit rate mode                            : Variable
Bit rate                                 : 5 028 Kbps
Maximum bit rate                         : 7 500 Kbps
Width                                    : 720 pixels
Height                                   : 576 pixels
Display aspect ratio                     : 4:3
Frame rate                               : 25.000 fps
Standard                                 : PAL
Color space                              : YUV
Chroma subsampling                       : 4:2:0
Bit depth                                : 8 bits
Scan type                                : Interlaced
Scan order                               : Top Field First
Compression mode                         : Lossy
Bits/(Pixel*Frame)                       : 0.485
Time code of first frame                 : 00:00:00:00
Time code source                         : Group of pictures header
GOP, Open/Closed                         : Closed
Stream size                              : 379 MiB (94%)
Writing library                          : ArcSoft MPEG-2 PAL
Color primaries                          : BT.601 PAL
Transfer characteristics                 : BT.470 System B, BT.470 System G
Matrix coefficients                      : BT.601

Audio
ID                                       : 192 (0xC0)
Format                                   : MPEG Audio
Format version                           : Version 1
Format profile                           : Layer 2
Duration                                 : 10mn 32s
Bit rate mode                            : Constant
Bit rate                                 : 224 Kbps
Channel(s)                               : 2 channels
Sampling rate                            : 48.0 KHz
Compression mode                         : Lossy
Delay relative to video                  : -20ms
Stream size                              : 16.9 MiB (4%)


DCR Vinyl Club #6 - Fur Bible – Fur Bible (Flac)






Fur Bible – Fur Bible
Label:New Rose Records – NEW 61
Format: Vinyl, 12", 45 RPM, Maxi-Single
Country: France
Released: 1985

Tracklist
A1     Plunder The Tombs     5:00
B1     Headbolt                      4:00
B2     Fumble Fist                 4:19

Credits

Vocals, Guitar – Kid Congo Powers
Bass – Patricia Morrison
Guitar – Murray Mitchell
Drums – Desperate
Producer – Clint Ruin


The Cramps - Larry's Hideaway, Toronto, Canada - 14.06.1982 (Flac)




Did this vinyl rip a long time but never had the chance to post it, so here it is. Very good audience recording.

Source: Fetischism Vinyl, Ghoul-Ash Records

Tracklist
01 Drug Train    
02 Goo Goo Muck    
03 Green Fuzz    
04 I'm 5 Years Ahead Of My Time    
05 Blue Moon Baby    
06 New Kind Of Kick    
07 Sometimes Good Guys Don't Wear White    
08 Thee Most Exalted Potentate Of Love    
09 Garbage Man    
10 Behind The Green Door    
11 The Crusher    
12 Psychotic Reaction    
13 Sunglasses After Dark    
14 Tear It Up    



Róisin Murphy - Sziget Festival, Budapest, Hungary - 13.08.2016 (Flac)



Taper: circle

Gear: Roland R-05 with internal mics

Setlist
share

01. Mastermind
02. Forever More (Moloko song)
03. Dirty Monkey (Moloko song)/ Dear Miami
04. Tight Sweater (Moloko song)/ In Sintesi
05. Tatty Narja (Moloko song) / Gone Fishing
06. Evil Eyes
07. House of Glass
08. Ten Miles High
09. Overpowered
10. Exploitation / Sing it Back (Moloko Song)

Time 77 min

Do Not Sell!
Enjoy.

RE-UPLOAD: The Nefilim - Batschkapp, Frankfurt, Germany - 14.12.1993 (Flac)


Thanks to Northern Nephilim for sharing this one here, and to spirrral for the ressed on DIME, and of course to cyberbio for taping and sharing it for the first time.

Quality it's not that bass heavy as Saturnalia, but quite good listenable. Here Dawnrazor is in the Set, and proper Chord of Souls again :)

Taper: :cyberbio:

reseed on dime 16th March 2012 spirrral

Notes: this is the last recording I made with the AIWA...

Lineage/Source: AIWA HSF-505 - TDK-MA 90 - Luxman HX-PRO K92 - inakustik Black&White NF 102 Chinchcable - M-Audiophile 24/96 - Audition 1.5 - CD Wave (1.97) (tracksplitting) - TLH (2.4.1 (Build 160)) [FALC level 8] - You



Tracks:

01. crowd
02. Still Life / Xodus
03. Pazuzu (Black Rain)
04. Shine
05. Moonchild
06. Dawnrazor
07. Zoon (Part 3) (Wake World)
08. Penetration
09. Venus Decomposing
10. crowd
11. Last Exit for the Lost
12. Chord of Souls

Enjoy!

cyberbio [2.009.06.13]


Quality not that bass heavy as Saturnalia, but quite good listenable.
 
Here Dawnrazor in the Set, and proper Chord of Souls again :)

RE-UPLOAD: Echobelly - BBC Radio 1 Sessions - 1995-1997 (Flac)



Thanks to the original uploader on Dime.

Various BBC Radio 1 sessions, as follows :-
Tracks 1 - 4:  John Peel session 3rd February 1995 (BBC Maida Vale 4)
Tracks 5 - 8:  Mark Lamarr session 29th Septmber 1995
Tracks 9 - 12:  Evening session 20th February 1996
Tracks 13 - 17:  Evening session 10th November 1997

Lineage: FM -> CD-R -> EAC -> WAV -> TLH -> FLAC 8 & .ffp

Tracklist :-

 1. Pantyhose & Roses
 2. Way Too (Go Away)
 3. Tarantino (Car Fiction)
 4. Four Letter Word
 5. Car Fiction
 6. King Of The Kerb
 7. On Turn On
 8. Natural Animal
 9. Aloha Lolita
10. Atom
11. Dark Therapy
12. We Know Better
13. Here Comes The Big Rush
14. I'm Not A Saint
15. Bulldog Baby
16. Iris Art
17. Lustra

Total length : 61 minutes approx

Attrition Vs TyLean - Silent Night (Free Download)



Free download with an Xmas spirit. Get it while you can or support the band by buying it if you can.