Monday, 30 October 2017

RE-UPLOAD: The Sisters Of Mercy - Alexandria Hotel, Los Angeles, USA - 29.10.1983 (Flac)



Re-uploaded as requested, but this version is not very good, still searching a lower generation copy.


Setlist:

01. Burn
02. Valentine
03. Anaconda
04. Temple Of Love
05. Heartland
06. Emma
07. Adrenochrome
08. Floorshow
09. Body Electric
10. Gimme Shelter
11. Alice
12. Sister Ray

The Cramps - Live TV Set (ProShot DVD)









Compilation of TV appearances and promo clips. Perfect for Halloween.Thanks to the original uploader.
Contents:

01. Request Video TV Show 1992 - 29.01 min
Q & A
Bikini Girls with Machine Guns Promo Clip
Q & A
Ted Lions and his Cubs Clip
Q & A
Dames Booze Chains and Boots Promo Clip
Q & A

02. Cult Ya Festival, Waldbühne, Northeim, Germany 15.08.1993 - 15.43 min
Mule Skinner Blues
Shortnin Bread
Surfin Bird

03. The Tube 07.03.1986 - 10.40 min
What's Inside A Girl
Hot Pearl Snatch
Can Your Pussy Do The Dog

04. The Late Show, BBC - 26.02.1990 - 7.00 min
Bikini Girls with Machine Guns
Mule Skinner Blues

05. Promo Clips - 5.57 min
Like A Bad Girl Should
Naked Girl Falling Down The Stairs

06. URGH a Music War 1981- 9.00 min
Tear It Up
Human Fly
I Was A Teenage Werewolf

The Cult - The Ritz, NY, USA - 06.12.1985 (Flac)



Excellent FM broadcast. Thanks to the original uploader.

Original Info File:

WLIR FM Broadcast Master
From The Joe Maloney Collection
Transferred and Presented By Krw_co

LINEAGE FM BROADCAST ANALOG MASTER >NAKAMICHI DR-1(w/manual azimuth adjustment)>
CREATIVE SOUNDBLASTER X-FI HD MODEL #SB1240 WAV (24/48KHZ)>MAGIX AUDIO CLEANING LAB
FOR TRACK MARKS AND EDITS WAV 16/44.1> TRADERS LITTLE HELPER FLAC (LEVEL 8) NO EQ

THE BAND
Ian Astbury  lead vocals percussion
Billy Duffy  guitar
Les Warner   drums
Jamie Stewart  bass

SET LIST
1 WLIR Intro
2 Nirvana
3 Revolution
4 Brother Wolf, Sister Moon
5 Rain
6 Ressurection Joe
7 Hollow Man (tape flip edit at 30:40)
8 She Sells Sanctuary
9 Spiritwalker
10 The Phoenix
11 Wild Thing

MANY THANKS TO JOE FOR SHARING HIS ARCHIVE.

PLEASE DONT POST THIS ON ANY OTHER TRACKERS OR SELL THIS RECORDING.
PLEASE DO NOT ALTER THIS RECORDING IN ANY WAY.
THANK YOU. AS ALWAYS, ENJOY. CHEERS KRW_CO

RE-UPLOAD: Cocteau Twins - Grosse Freheit 36, Hamburg, Germany - 02.02.1994 (Flac)


Thanks to the original uploader.


Original info file:

Lineage
SA 90 Cass > Wavelab (24/48> Peak Level adjustment (+6db) > Split Tracks > TLH Flac (8)

*****************************************************************************************
*****************************************************************************************

01.Pur
02.Road, river & rail
03.Bluebeard
04.Cherry coloured funk
05.Evangeline
06.Cico bluff
07.Know who you are at every age
08.Heaven or Las Vegas
09.Whales tails
10.Carolyn's fingers
11.Iceblink luck
12.Summerhead
13.Bluebell knoll
14.Aikea guinea
15.Ella megalast burls forever
16.Pink orange red

*****************************************************************************************
*****************************************************************************************

Received in tape trade with French trader, cassette has AU1 written on label, the trader
in question escapes me but he is well known, I recognise the hand writing on the inlay card.

The recording is very clear and with a reverential crowd unlike some of the other 1994 gigs
where there is talking and in one particular case a girl that screams as soon as she hears
the first few bars of a song that she likes.

The tape does have a few signs of wear and tear, there are a few drop outs throughout the
recording, these are on the tape.

*****************************************************************************************
*****************************************************************************************

RE-UPLOAD: Fad Gadget/Depeche Mode - Waldbuhne, Berlin, Germany - 09.06.2001 (Flac)



A very good sounding bootleg, including the set of support act Fad Gadget also. Thanks to the original uploader.

lineage: CD silver->EAC->FLAC
bootleg: "Exciter Tour Berlin"
LVCD BONG 100/101



DEPECHE MODE

CD1:

01 Easy Tiger/Dream On - intro       
02 The Dead Of Night       
03 The Sweetest Condition  
04 Halo
05 Walking In My Shoes       
06 Dream On       
07 When The Body Speaks       
08 Waiting For The Night       
09 Sister Of Night      
10 Breathe       
11 Freelove        
12 Enjoy The Silence       
13 I Feel You   
14 In Your Room  

CD2:
  
01 It's No Good  
02 I Feel Loved
03 Personal Jesus       
04 Home       
05 Condemnation       
06 Black Celebration
07 Never Let Me Down Again

FAD GADGET

08 State Of The Nation
09 Ricky's Hand
10 Collapsing New People
11 King Of The Flies
12 Fireside Favourite
13 Handshake
14 Back To Nature


The Psychedelic Furs - The Old Grey Whistle Test, UK - 01.11.1982 (MPG)








Thanks to the anonimous collaborator for sending me this video to share here.

Lineage: TV broadcast -> VHS (1)-> Panasonic NV-HS860 -> EZCAP With Arcsoft Showbiz -> MPG

Tracklist:
01. President Gas
02. Danger
03. Sleep Comes Down

Total Time: 09m 14s

Do Not Sell!
Enjoy.

Format                                   : MPEG-PS
File size                                : 284 MiB
Duration                                 : 9mn 14s
Overall bit rate                         : 4 300 Kbps
Writing library                          : ArcSoft MPEG-2 NTSC

Video
ID                                       : 224 (0xE0)
Format                                   : MPEG Video
Format version                           : Version 2
Format profile                           : Main@Main
Format settings, BVOP                    : Yes
Format settings, Matrix                  : Custom
Format settings, GOP                     : M=3, N=15
Duration                                 : 9mn 14s
Bit rate                                 : 4 096 Kbps
Width                                    : 640 pixels
Height                                   : 480 pixels
Display aspect ratio                     : 4:3
Frame rate                               : 29.970 fps
Standard                                 : NTSC
Color space                              : YUV
Chroma subsampling                       : 4:2:0
Bit depth                                : 8 bits
Scan type                                : Progressive
Compression mode                         : Lossy
Bits/(Pixel*Frame)                       : 0.445
Time code of first frame                 : 00:00:00:00
Time code source                         : Group of pictures header
GOP, Open/Closed                         : Open
Stream size                              : 270 MiB (95%)
Writing library                          : ArcSoft MPEG-2 NTSC
Color primaries                          : BT.470 System M
Transfer characteristics                 : BT.470 System M
Matrix coefficients                      : BT.601

Audio
ID                                       : 192 (0xC0)
Format                                   : MPEG Audio
Format version                           : Version 1
Format profile                           : Layer 2
Duration                                 : 9mn 14s
Bit rate mode                            : Constant
Bit rate                                 : 128 Kbps
Channel(s)                               : 2 channels
Sampling rate                            : 44.1 KHz
Compression mode                         : Lossy
Stream size                              : 8.46 MiB (3%)

KMFDM / ohGr - Regency Ballroom, San Francisco, CA, USA - 22.10.2017 (Flac)


Very Good audience recording. Thanks to the taper for sharing on Dime.

Original Info File:

DPA 4061s-battery box-Sony Pcm-m10
Transfer M10-usb-audacity-cdwav editor-flac

Taped from mid floor

Taper notes, well fuck yeah I went and taped!  and what a show!

I love Ohgr, and he rocked it, it is all his solo stuff, no skinny puppy material
(inspite of the audience screaming for it) and he toned down his stage act for the
show (guessing as he was not the headliner) and went for about an hour

Had not seen Kmfdm before and was very pleased.  Rocking good show, but man they used enough
strobe lighting to induce a seizure!

Crowd was into it, not a full house and not much crowd chatter (were they heavily medicated?)
I still dont get how these shows don't turn into a massive mosh pit (but fuck it I was dancing)

Minor eq required

As always dont sell it share it "it is only a memory unless someone records it" Hail Satan!

Happy Halloween motherfuckers!

Ohgr Setlist:
maJiK
Eyecandy
kettLE
luSId
miNUS
nitwitz
craCKer
dEVil
DoG
pissage
Shhh
wAteR


KMFDM Setlist:
D.I.Y.
Freak Flag
Hell Yeah
Amnesia
Light
Rebels in Kontrol
Total State Machine
Animal Out
Burning Brain
Bumaye
Glam, Glitz, Guts & Gore
Shock
Virus
Murder My Heart
A Drug Against War
Encore:
WWIII
Hau Ruck
Godlike

Ride - Festival Internacional de Benicàssim, Benicàssim, Spain - 13.07.2017 (MKA)



Excellent sound. Thanks to the original uploader.

Original Info File:

This is the complete set, DVB-S broadcast, recorded live from Radio 3 RNE (public spanish radio) on July 13th 2017.
Enjoy it!

Full Lineage:
RADIO 3 RNE (satellite live broadcast) > TS3010HD receiver (USB memory flash .ts file recording/ capture)
> mkvmerge 7.0 unwanted .ts file parts splitting, mkv file > dime > you.

File Info:
Format : Matroska
File size : 108 MiB
Duration : 58 min 40 s

Audio Info:
Format : MPEG Audio 2
Bit rate mode : Constant
Bit rate : 256 kb/s
Channel(s) : 2 channels
Sampling rate : 48.0 kHz
Language : Spanish

Setlist:

01. Lannoy Point
02. Charm Assault
03. Seagull
04. Like A Daydream
05. Cali
06. Leave Them All Behind
07. Dreams Burn Down
08. All I Want
09. Taste
10. Vapour Trail
11. Drive Blind

Total Playing Time: 00:58:40

Note: Brief comments are present at beginning/ end and also in other parts of the recording.


DO NOT SELL - SHARE FREELY - PRESERVE LOSSLESS FILES DISTRIBUTION
Support Artists! Attends their concerts,
Buy their official releases and merchandising.


XTC - Emerald City, Cherry Hill, NJ, USA - 11.04.1981 (Flac)



Excellent FM broadcast. Thanks to the original uploader.


Original Info File:

WMMR a long standing radio station from Phildelphia PA is hard at work again this time with a live performance from XTC. Broadcasting live from a club just across the Ben Franklin Bridge in Cherry Hill New Jersey. Enjoy!

Lineage:FM Broadcast> Maxell XLII-90 acquired in trade> NAK BX-125> M-Audio 24/96> Adobe Audition> WAV> Flacfrontend> Flac 6> YOU

Band
Andy Partridge Guitar, Vocals
Colin Moulding Bass, Vocals
Terry Chambers Drums
Dave Gregory Guitar

 01 Intro
 02 Reel By Reel
 03 Life Begins At The Hop
 04 When You're Near Me I Have Difficulty
 05 Respectable Street
 06 Sgt. Rock (is going to help me)
 07 No Language In Our Lungs
 08 Ball And Chain
 09 Paper And Iron
 10 Love At First Sight
 11 Roads Girdle The Globe
 12 Scissor Man
 13 Towers Of London
 14 Burning With Optimism's Flame
 15 Making Plans For Nigel
 16 Living Through Another Cuba
 17 Generals And Majors
 18 DJ Commentary
 19 This Is Pop
 20 Helicopter
 21 DJ Commentary 2
 22 Statue Of Liberty
 23 Outside World
 24 Closing Remarks

Ripped by Atlasstar 5-2017

Please share freely, do not convert to lossy except for personal use. Please trade with the original files after allowing me sufficient time to post on my favorite sites.

This is part of the Atlasstar Attic Treasures Series. My attic consists of thousands of cassettes collected since the 70's. I will post them in no particular order as I pull them out of the attic and convert to digital. Some of these artists I know well and collect myself, other I know little about just picked up along the way. I will provide as much info as I can but if anyone can add any insight to the recordings it would be appreciated.  If the same recording is circulating in better quality please let me know as I have no intention of polluting the trading pool. A list of all recordings in this series is included with the torrent.

All recordings are kept as original as possible with minimal processing. Unless noted otherwise the only adjustments made are Automatic Phase Correction, Level adjustments and cleaning of any rough or abrupt cuts.

RE-UPLOAD: Passion Play - Wave Gotik Treffen, Werk 2, Leipzig, Germany - 18.05.2013 (Flac)




2013-05-18
PASSION PLAY
WAVE GOTIK TREFFEN - WERK II
LEIPZIG, GERMANY
AKA "THE FINAL ACT LIVE"


source/lineage:   

- Church Audio CA-11 (Omni Caps) mounted on glasses
- Tascam DR-05 @ 24 Bit / 44 kHz
- Cubase (Master, Tracksplitting, DC Offset Remove) -> WAV 16 Bit / 44 kHz
- Trader´s Little Helper 2.6.0 (FLAC Level 8, SBE Fix, Checksum)
- including artwork for Jewel Case


Setlist:

00 - Intro
01 - Drift
02 - Frantic
03 - Falling Upwards
04 - Caught By The Nails
05 - Feel Fire
06 - Sight For Sore Eyes
07 - Analgesia
08 - Bullet
09 - The Lesser One
10 - Stop Me
11 - Leaving
12 - Saints
13 - Down To You
14 - Running On Empty


Band:

Justin Stephens - Vocals, Guitar
Ralf Huenefeld - Guitar
Christopher Juicyfer - Bass
Sebastian Hilgetag - Drums
Phillip Strobel - Guitar


Information:

Last Show. No Compromise!

Justins words to the show:
It's difficult to put into words just how special last night was... it was the best moment in the history of Passion Play and the perfect note to end on. To see so many people filling Werk II and feel the atmosphere you all created exceeded all my hopes... A huge Thank You to Ralf Hünefeld, Sebastian Hilgetag and Chris Engel for making us the best we've ever been, to Thomas Mixmeister and Jennifer Paul for the great sound and lights, to aufnahme + wiedergabe for boundless dedication, to Thomas Thyssen and Ian P Christ for working to make the show happen, to Wave-Gotik-Treffen for the opportunity to finish on an all-time high, to the crew at Werk II for being the definition of relaxed professionalism and to all of you who were there to make it a magical night I'll never forget...

I'm going to start work on something new - I'll post news of it here when the time comes, but for Passion Play, this is the end.

Thanks for the memories,
J/x


TIME BANDIT taped following events on Wave Gotik Treffen 2013

2013-05-17
- Terminal Gods
- The Breath Of Life
- Still Patient?
- Gitane DeMone
- Sex Gang Children

2013-05-18
- The Mescaline Babies
- The Spiritual Bat
- Bloody, Dead & Sexy
- Passion Play
- Skeletal Family

2013-05-19
- Sleeping Dogs Wake
- Esben And The Witch

2013-05-20
- Whispers In The Shadow
- In Mitra Medusa Inri
- I Like Trains


DISCLAIMER:

recording made by NorthernNephilim (DIME: TimeBandit )

Do not transcode to lossy formats or remaster!

Not for Sale !!! Sharing is Caring, do not trade the FLAC´s without info file, checksum

If you like the band, please visit their concerts and buy their records.

official homepages:
http://www.passionplay.co.uk
https://www.facebook.com/Passion.Play.band
http://aufnahmeundwiedergabe.bigcartel.com/artist/passion-play

Thank You, Very Much

Wednesday, 25 October 2017

RE-UPLOAD: The Sisters Of Mercy - Limburghal, Genk, Belgium - 13.04.1985 (Flac)



And here's your dose of TSOM, just tell me if start getting tired, I still enough for another couple of years, if I maintain this rythmn ;)

Good sound, but it contains some clicks.


Setlist.:

01. Intro
02. First And Last And Always
03. Body And Soul
04. Train
04. Marian
05. No Time To Cry
06. Possession
07. Walk Away
08. Emma
09. Amphetamine Logic
10. A Rock And A Hard Place
11. Floorshow
12. Alice
13. Body Electric
14. Gimme Shelter
15. Knocking On Heavens Door
16. Ghostrider/Sister Ray


RE-UPLOAD: The Cure - Grugahalle, Essen, Germany - 11.05.1989 (Flac)


Excellent audience recording.  Thanks to -exene for sharing it on Zomb.

Original source text:

AUD0->?->cdr (obtained in trade, verified lossless via EAC) > EAC (Secure with C2, accurate stream, disable cache) > .Wav > Trader's Little Helper >.Flac

This was the 9th show of the "Prayer Tour", or so the "Disintegration" LP's tour was so dubbed. Previously widely circulated as the "Dark Night" bootleg, although missing faith,and with charlotte sometimes incomplete. This is a transfer off of the analog master. According to cure-concerts, it was recorded with Sony WM-D6 Professional Analog Recorder, a very nice piece of equipment indeed. I like this recording very much. It's clear, with little crowd disturbance.

enjoy!
-exene

Mainset:
plainsong
pictures of you
closedown
kyoto song
a night like this
just like heaven
last dance
fascination street
cold
charlotte sometimes
the walk
a forest
inbetween days
the same deep water as you
prayers for rain
disintegration
   
Encore 1:
lullaby
close to me
let's go to bed
why can't i be you

Encore 2:
three imaginary boys
boys don't cry

Encore 3:
homesick
untitled
faith

Peter Murphy - Vic Theatre, Chicago, USA - 13.08.1995 (Flac)






Good FM broadcast, a bit of distortion but quite listenable. Thanks to the original uplader.

Original Info File:

FM Broadcast -> Cassette -> CDR -> SHN
SHN > mkw > WAV > FLAC(8) (verified identical with shntool)

Tracklist:

01 Wild Birds    04:24
02 Mirror    04:52
03 Subway    05:04
04 Disappearing    04:58
05 Deep Ocean    04:00
06 Crystal Wrists    03:56
07 Sweetest Drop    06:37
08 Hit Song    05:38
09 Strange Kind of Love    04:15
10 Indigo Eyes    04:52
11 Cuts You Up    05:22
12 Low Room    05:20

Not the complete set, but it is all that was broadcast.  I think there was at least one more song in the encore, but I don't remember what's missing.  One cool thing, though, in the middle of "Subway" he sings a bit of David Bowie's "Oh, You Pretty Things,"  which some guy in the lobby after the show was trying to convince me was actually David Byrne!  Anyway, enjoy the show; I hope some more Peter Murphy turns up now.

DJ/Commercials edited out.
Sorry, no artwork...


The Dirty Three with Nick Cave - - Big Day Out, Melbourne, Australia - 22.01.1995 (Flac)



Excellent FM broadcast. Thanks to the original uploader on Dime.

Original Info File:

Lineage: sbd > fm* > wav > flac

*as broadcast by 3RRR radio in Melbourne

Setlist:
1 - Everything's Fucked (fades in)
2 - I Remember a Time When Once You Used to Love Me
3 - Toaster!
4 - The Last Night (a.k.a. Mick's Love Song)
5 - Tupelo (with Nick Cave)
6 - Shivers (with Nick Cave)

** A big thank you goes to Lachlan & Bob for the files.


Nico with The Blue Orchids - Clutch Cargos, Detroit, USA - 06.07.1982 (Flac)



Excellent soundboard. Thanks to kingrue for sharing in TTD.

Original Info File:

Source: Soundboard > low generation cassette

Transfer:  Zoom H4n (16 bit / 44.1 kHz)

Editing: Soundforge (tracking) > Wav (Eac tested) > TLH (sector boundary aligned) Flac level 8
...............................................................................................

here is a comprehensive website list of many live Nico recordings.

http://underpop.free.fr/n/nico/nicoperf.htm


In 1946, Nico and her mother relocated to downtown Berlin, where Nico worked as a seamstress. She attended school until the age 13, and began selling lingerie in

the department store KaDeWe, eventually getting modeling jobs in Berlin. At five feet ten inches and with chiseled features and porcelain skin, Nico rose to

prominence as a fashion model as a teenager.   Nico was discovered at 16 by the photographer Herbert Tobias while both were working at a KaDeWe fashion show in Berlin.

He gave her the name Nico after her ex-boyfriend, Through her travels, she learned to speak English, Spanish, and French. 

After appearing in several television advertisements, Nico got a small role in Alberto Lattuada's film La Tempesta (1958).

She also appeared in Rudolph Maté's For the First Time, with Mario Lanza, later that year.  In 1959, she was invited to the set of Federico Fellini's La Dolce Vita,

where she attracted the attention of the acclaimed director, who gave her a minor role in the film as herself.

By this time, she was living in New York and taking acting classes.

Nico's first performances as a singer took place in December 1963 at New York's Blue Angel nightclub, where she sang standards such as "My Funny Valentine".

In 1965, Nico met the Rolling Stones guitarist Brian Jones and recorded her first single, "I'm Not Sayin'" with the B-side "The Last Mile".

After being introduced by Brian Jones, she began working in New York with Andy Warhol and Paul Morrissey on their experimental films,

In 1967, Nico's tenure with the Velvet Underground was marked by personal and musical difficulties. Violist and bassist John Cale has written that Nico's long preparations in the

dressing room and pre-performance good luck ritual (burning a candle) would often hold up a performance, which especially irritated band member Lou Reed.

Nico's partial deafness also would sometimes cause her to veer off key, for which she was ridiculed by other band members.

Between 1970 and 1979, Nico made about seven films with French director Philippe Garrel.

Nico returned to New York in 1979 where her comeback concert at CBGB.  Around this time, Nico was often cited as an influence on the gothic rock scene.

Echo & the Bunnymen,  invited Blue Orchids to be the opening act for their 1981 UK tour.  She recorded her final solo album, Camera Obscura, in 1985.

Nico recorded her last concert June 6, 1988 at the Planetarium in West Berlin, Germany.

On July 18, 1988, while on vacation in Ibiza with her son Ari, Nico had a heart attack while riding a bicycle, and she hit her head as she fell. 

Causing a brain hemorrhage that ended her life at the age of 49.

I'm unsure who's playing bass guitar,  so I listed both possible players.

Personnel:
Nico - vocals, harmonium

with The Blue Orchids:
Martin Bramah - guitar, backing vocals
Una Baines - keyboards, vocals
Steve Garvey - bass, backing vocals
Rick Goldstraw - bass guitar (1979–82)
Phillip Toby Toman (aka Toby Tomanov) - drums (1981–82)


Set list:
01 One More Chance
02 Saeta
03 60-40
04 Vegas
05 The Sphinx
06 Janitor of Lunacy
07 Secret Side
08 No One Is There
09 The End -- tape flip @ 5:19 --
10 All Tomorrow's Parties
11 Femme Fatale
12 I'm Waiting For The Man (ending cuts off)

Total Time = 59:49 min

~~ ENJOY ~~


Fad Gadget - Riverside Studios, London, UK - 11.01.1982 (MPG)







Thanks to the anonimous collaborator for sending me this video to share here.

Lineage: TV broadcast -> VHS (?)-> Panasonic NV-HS860 -> EZCAP With Arcsoft Showbiz -> MPG

Tracklist:
01. Saturday Night Special
02. Blind Eyes (cut)

Total Time: 6m 59s

Do Not Sell!
Enjoy.


Format                                   : MPEG-PS
File size                                : 215 MiB
Duration                                 : 6mn 59s
Overall bit rate                         : 4 300 Kbps
Writing library                          : ArcSoft MPEG-2 NTSC

Video
ID                                       : 224 (0xE0)
Format                                   : MPEG Video
Format version                           : Version 2
Format profile                           : Main@Main
Format settings, BVOP                    : Yes
Format settings, Matrix                  : Custom
Format settings, GOP                     : M=3, N=15
Duration                                 : 6mn 59s
Bit rate                                 : 4 096 Kbps
Width                                    : 640 pixels
Height                                   : 480 pixels
Display aspect ratio                     : 4:3
Frame rate                               : 29.970 fps
Standard                                 : NTSC
Color space                              : YUV
Chroma subsampling                       : 4:2:0
Bit depth                                : 8 bits
Scan type                                : Progressive
Compression mode                         : Lossy
Bits/(Pixel*Frame)                       : 0.445
Time code of first frame                 : 00:00:00:00
Time code source                         : Group of pictures header
GOP, Open/Closed                         : Open
Stream size                              : 205 MiB (95%)
Writing library                          : ArcSoft MPEG-2 NTSC
Color primaries                          : BT.470 System M
Transfer characteristics                 : BT.470 System M
Matrix coefficients                      : BT.601

Audio
ID                                       : 192 (0xC0)
Format                                   : MPEG Audio
Format version                           : Version 1
Format profile                           : Layer 2
Duration                                 : 6mn 59s
Bit rate mode                            : Constant
Bit rate                                 : 128 Kbps
Channel(s)                               : 2 channels
Sampling rate                            : 44.1 KHz
Compression mode                         : Lossy
Stream size                              : 6.41 MiB (3%)

Cigarettes After Sex - A Summer's Tale Festival, Luhmuhlen, Germany - 03.08.2017 (Flac)





Excellent band that are about to headline MexeFest 2017 in Portugal.

Original Info File:

Tracklist:

01 Sweet (Greg Gonzalez)
02 Each time you fall in love (Greg Gonzalez)
03 K (Greg Gonzalez) -traffic warning 3:38-3:50-
04 Sunsetz (Greg Gonzalez)
05 NothingÕs gonna hurt you Baby (Greg Gonzalez)
06 Keep on loving you (Kevin Cronin)
07 Affection (Greg Gonzalez)
08 Apocalypse (Greg Gonzalez)
09 Dreaming of you (Greg Gonzalez)

Greg Gonzalez Ð guitars, vocals
Phillip Tubbs Ð keyboards
Randy Miller Ð bass
Jacob Tomsky Ð drums

min  44:57

FM (analog cable) - Audacity - xACT

NDR 2
Soundcheck Live
2017-10-16


Support the artists by buying their records.

Christian Death - Whiskey-A-Go-Go, Los Angeles, USA - 13.11.1981 (MP3)



Thanks to Ronan for sending me this recording to post here. In MP3.

Tracklist:

01. Intro / Birth
02. Cavity / First Comminion
03. Spiritual Cramp
04. Deathwish
05. Desperate Hell
06. Skeleton Kiss (instrumental)
07. Romeo's Distress
08. Dream For Mother
09. Dogs
10. Figurative Theater
11. Burnt Offerings
12. Resurrection / Six Six Sixth Communion

RE-UPLOAD: Love Like Blood - Shadowplay Festival, Xpo, Kortrijk, Belgium - 23.07.2011 (Flac)



concert from the reformed Love Like Blood, very good sound. Thanks to Druide for letting me share his recording and to Northern Nephilim for all the hard work of splitting the tracks,info and uploading.

P.A. Version

HD0 - Olympus LS 11 + MM-HLSC-1 + Mint box battery @ 95 Khz
additional lineage by Northern Nephilim (Dime: TimeBandit):
TLH-> Wave -> Cubase: track splitting -> tracks in Wave, adding track names, +2dB Gain -> TLH -> FLAC level 8, SBE Fix, Checksum.



Setlist :
- Intro -
01 - Everlasting Dream
02 - Walking in Demimondes
03 - Out Of Sight
04 - Within the Realm of a Dying Sun
05 - Fallacious World
06 - The Night is Young
- Interlude, introducing Gonzo -
07 - Johannesburg *
08 - Doomsday *
09 - Phrases
10 - Ylene
11 - Dear Catherine
12 - Kiss & Tell
13 - Heroes (David Bowie Cover)
- Encore Break -
14 - Means to an End (Joy Division Cover) *
15 - Don't Leave Me
16 - Liberation
17 - Remember
* Featuring Gonzo, the initial singer of Love Like Blood.

Do not transcode to lossy formats or remaster (only personal use) !
Not for Sale !!! Sharing is Caring, do not trade the FLAC´s without info file, checksum
If you like the band, please visit their concerts and buy their records.
official homepage: www.love-like-blood.de/ not up to date, last change 1999 ;-)
up to date one: http://www.facebook.com/LLBofficial

Thank You, Very Much

RE-UPLOAD: Nine Inch Nails - Live 2009 (MP3)


Excellent sound for this homemade bootleg, sourced on the Vimeo videos that NIN posted during their 2009 tour. The perfect live album. Thanks to Beun29 for sharing it here and for the extra cool artwork!

Setlist :

01. 1 000 000 (Sydney, Australia, 2.22.2009)
02. Letting You (Brisbane, Australia, 2.21.2009)
03. Burn (Melbourne, Australia, 2.25.2009)
04. The Fragile (Adelaide, Australia, 2.28.2009)
05. The Becoming (Sasquatch Festival, George, Washington, 5.24.2009)
06. Survivalism (With Saul Williams) (Atlanta, Georgia, 5.10.2009)
07. Banged And Blown Through (With Saul Williams) (Atlanta, Georgia, 5.10.2009)
08. I'm Afraid Of Americans (Toronto, Canada, 6.02.2009)
09. Lights In The Sky (Austin, Texas, 5.12.2009)
10. The Way Out Is Through (Holmdel, New Jersey, 6.06.2009)
11. Last (Holmdel, New Jersey, 6.06.2009)
12. Somewhat Damaged (Roskilde Festival, Denmark, 7.03.2009)
13. Just Lile You Imagined (With Mike Garson) (Henry Fonda Theater, LA, California, 9.08.2009)
14. Wish (With The Dillinger Escape Plan) (Perth, Australia, 3.02.09)
15. Metal & Cars (With Gary Numan) (London, England, 7.15.2009)
 

Friday, 13 October 2017

RE-UPLOAD: The Sisters of Mercy - NEC, Birmingham, UK - 22.12.1993 (Flac)



An upgrade to Flac of one of my favorite concerts. HUGE Thanks to DrG for sending me this version to share here, and of course to the original poster on Dime,  gimmetruth.

DrG Notes:  Corrected track 6 mislabeled "Destination...", removed MD5 in favor of FFP from FLAC Frontend.  Shared at Heartland with good grace of gimmetruth!

NOTE FOR DARK CIRLCE ROOM POST: Some bootlegs sound like they were recorded in a tin can, some like they were dropped in a bucket of water. I listen to all my music through Winamp with *flat* EQ. However, with most *iffy* sounding bootlegs, chances are that EQing can help. That is how I remaster some recordings for CD (to play in a car and such). At home, I use Winamp's EQ to make a tinny bootleg have more bass, and a bassy boot have more treble. Try it... experiment. I can send you a screen shot for the preset I made for this TSOM recording if you need... I love it! It's twice as loud and adds punch!!!

Original Notes:

Lineage: Cassette (unknown gen) - ION Tape2PC - Audacity - CD Wave - Flac (level 6) - DIME

*** Uploaded by gimmetruth on Dimeadozen ***

Bought at Brighton Records Fair shortly after the gig.
Very good audience recording

Scan of tape inlay included in torrent.

Please do not sell. Convert to mp3 for personal use only.

Enjoy

Set List

01. Intro
02. Comfortably Numb
03. Some Kind Of Stranger
04. Ribbons
05. Train
06. Detonation Boulevard
07. Alice
08. Giving Ground
09. Come Together
10. Anaconda
11. On The Wire
12. More
13. Under The Gun
14. Body Electric
15. Flood II
16. This Corrosion
17. Kiss The carpet
18. First and Last and Always
19. Temple of Love
20. Something Fast
21. Vision Thing

Front 242 - Cold Waves VI, Metro, Chicago, USA - 30.09.2017 (Flac)





Very good sound. Thanks to JB for sharing on Dime.

Original Info File:

Set 1 - 1:24:03
-----------------------
01. Happiness (More Angels)
02. Take One
03. Religion
04. Body to Body
05. Together
06. Triple X Girlfriend
07. Quite Unusual
08. Loud
09. Funkahdafi
10. Don't Crash
11. Commando Mix
12. U-Men
13. Headhunter
14. Im Rhythmus Bleiben
15. Welcome to Paradise
16. Off-Stage

17. Operating Tracks
18. Punish Your Machine


SAMPLE TYPE
-----------
16 bit 44.1 kHZ

SOURCE
------
Core Sound HEB 4060 (Base Rolloff On) > Sony PCM-M10

LOCATION
--------
Balcony, Front Row, Left Side

NOTES
-----
Taper:             JB
Other Version:        24 bit 96 kHZ is available on Dimeadozen
Opening Band:        Severed Heads, Assemblage 23, Statiqbloom, Malekko, Grun Wasser

.

Morrissey - Maida Vale Studios, London, UK - 02.10.2017 (Flac)



Excellent session playing  a mix of songs from the new album and classics. Thanks to the original uolader on Dime.

Original info file:

BBC 322kb/s AAC/Web PVR Manager/Adobe Audition cc>Tracks>fades>phase correction>Flac
SBE fix/Checksum files done in Traders Little Helper

Lauren launches this year's 6 Music Live, at the BBC's Maida Vale studios, with Morrissey.

Morrissey recorded four Maida Vale Sessions for John Peel alone, when he was with The Smiths, and then went on to forge a successful solo career with his debut solo album in 1988.
All ten of his solo efforts landed in the Top 10 on the UK album charts, including three entries at Number One. This November he releases Low in High-School, his first studio album since 2014.

Set list, but nothing introduced so not cross referenced to tracks, banter (drivel mostly) in separate tracks.

You Have Killed Me
I Wish You Lonely
Spent The Day In Bed
Speedway
Istanbul
Ganglord
Jacky's Only Happy When She's Up On The Stage
Back On The Chain Gang
World Peace Is None Of Your Business
The Bullfighter Dies
When You Open Your Legs
Jack The Ripper
Home Is A Question Mark


Tears For Fears - Civic Centre, Baltimore, Maryland, USA - 30.09.1985 (Flac)


.Very good sound. Thabks to ronan for sending me this recording to share on the blog.

Source: Unknown Audience Recording.
Quality: Very Good/Very Good+ ~ Rating: 8/10.

Set List:

1.Mother's Talk 4:11
2.Broken 2:33
3.Head Over Heels 6:30
4.Pale Shelter 4:36
5.Memories Fade 5:21
6.Start of the Breakdown 6:43
7.The Prisoner (Medley) 15:09
8.Mad World 4:47
9.Everybody Wants to Rule the World 4:36
10.The Hurting 5:17
11.Shout 7:29
12.Suffer the Children 6:01
13.Change 4:52

Band Line Up:

Roland Orzabal: Vocals, guitars, keyboards & timpani.
Curt Smith: Vocals, bass, keyboards & guitar.
Manny Elias (?): Drums.
Ian Stanley (?): Keyboards.

78:09 Minutes.

*******************************************************************************
**********PLEASE PRESERVE QUALITY, DO NOT ENCODE TO MP3************************
**********KEEP OUR RIGHT TO TRADE FREELY ALIVE*********************************
**********DON'T SELL THIS SHOW*************************************************
**********ENJOY AS MUCH AS YOU LIKE********************************************
*******************************************************************************


 

UPGRADE: Rubicon - What Ends Starts Again - xx.11.1992 (Flac)


Recorded live in November 1992. Excellent sound.Finally in FLAC format courtesy yo Appick. BIG Thanks to him.

Setlist:

01. Before My Eyes
02. Inside Your Head
03. Watch Without Pain
04. Air
05. Killing Time
06. Brave Hearts
07. Chains Are Gone
08. Hard For You
09. Rivers
10. Unspoken
11. What Starts, Ends

RE-UPLOAD: Love Like Blood - Wave Gothic Treffen, Agra Stage, Leipzig - 09.06.2011 (Flac)



And the last post for today, thanks to Northern Nephilim for this flood of WGT 2011 recordings!

recording position: FOB
source/lineage:
- Yamaha Pocketrak W24 @ 24 Bit / 48 kHz
- Cubase (Master, Tracksplitting, DC Offset Remove) -> WAV 16 Bit / 44 kHz
- Trader´s Little Helper 2.6.0 (FLAC Level 8, SBE Fix, Checksum)

information:
Germany´s number one Goth Rock act is doing some gigs this year, the gig on the WGT was called as the really last gig of them but it looks like it´s a little reunion tour after so many years. They put a really superb sound at the problematic Agra stage, only female background voice went distorted on first song. A really great concert and one of the highlights of this year´s WGT.

Yorck Eysel: Vocals
Gunnar Eysel: Bass
Timo Deininger: Guitars
Alex Schäder: Guitars
Al Sauer: Drums

SET:
01 - Announcement
02 - Intro
03 - Everlasting Dream
04 - Walking in Demimondes
05 - Out of Sight
06 - Within the Realm of a Dying Sun
07 - Fallacious World
08 - The Night is Young
09 - Johannesburg
10 - Doomsday
11 - Ylene
12 - Dear Catherine
13 - Kiss and Tell
14 - Heroes (David Bowie Cover)
15 - Encore Break
16 - Phrases
17 - Liberation
18 - Remember

DISCLAIMER:
recording made by NorthernNephilim (DIME: TimeBandit )
Do not transcode to lossy formats or remaster!
Not for Sale !!!

If you like the band, please visit their concerts and buy their records.
official homepage: www.love-like-blood.de/ not up to date, last change 1999 ;-)
up to date one: http://www.facebook.com/LLBofficial

Thank You, Very Much


RE-UPLOAD: The Vaynes - The Gathering Hall, Portree, Isle Of Skye, Scotland, UK - 18.08.1989 (Flac)



From now on the Mish posts of the Highland Tour, will be coupled with the recordings of the support band, The Vaynes. Thanks to Egg_Cris for another master.

Cassette(Audience,Master,TDK D90,recorded on Saisho PS 35R with built-in mic) > wav > Soundforge(normalise uneven L&R channels) > CDWave(split on sector boundaries) > flac(6)

Taping position: front row.
Tape flip before the last song.
The Vaynes were support for the whole tour but for some reason I didn't tape them at Elgin & Stornoway (and I wasn't at the Dundee gig).


Setlist:

01 Intro
02 Rock N Roll Crime
03 T.V. Man
04 Mr. Fixit
05 A Man Possessed
06 Violent Dream
07 Lick The Dirt
08 Pretty Girl
09 Alive And Kicking
10 All In One
11 Big Cities
12 She Bit My Arms
13 Helta Skelta Time

Length - 48:44

Uploaded by Egg_Crisis for Dark Circle Room
Convert to mp3 for personal use only. Do not circulate in FLAC or WAV format without this info file.

RE-UPLOAD: The Vaynes - Osprey Suite, Aviemore Centre, Aviemore, Scotland, UK - 19.08.1989 (Flac)


Supporting the Mission.

Cassette(Audience,Master,TDK D90,recorded on Saisho PS 35R with built-in mic) > wav > Soundforge(normalise uneven L&R channels) > CDWave(split on sector boundaries) > flac(6)
Taping position: front row.

This one fit perfectly on one side of a tape.  I didn't stop the tape at the end, I just let it run out which it did about 20 seconds after the final song ended.


Setlist:

01 Intro
02 Rock N Roll Crime
03 T.V. Man
04 Mr. Fixit
05 A Man Possessed
06 Violent Dream
07 Lick The Dirt
08 Pretty Girl
09 Alive And Kicking
10 All In One
11 Big Cities
12 Helta Skelta Time
13 She Bit My Arms

Length - 46:37

Uploaded by Egg_Crisis for Dark Circle Room
Convert to mp3 for personal use only. Do not circulate in FLAC or WAV format without this info file.