Wednesday, 31 May 2017

RE-UPLOAD: The Sisters Of Mercy - Strathclyde University, Glasgow, Scotland - 09.03.1985 (Flac)





Thanks to Pista for sharing this one over at HL and letting me share it here with you. All he asked for was for the post to have a good photo. Hope You like the photos ;)

Original Info File:

once again ,i have'nt a clue where I got this ,some time in the mid eighties, thats all I know
sounds ok,but feel free to clean it up if desired!!

 ----------------

LINEAGE>UNKNOWN GEN CASSETTE>CDR>EAC>TRADERS HELPER>FLAC LEVEL6

----------------



TRACKLISTING

DISC 1
FIRST AND LAST AND ALWAYS
BODY AND SOUL
TRAIN
MARIAN
NO TIME TO CRY
WALK AWAY
BURN
EMMA

DISC 2
A ROCK AND A HARD PLACE
AMPHETAMINE LOGIC
FLOORSHOW
ALICE
BODY ELECTRIC
GIMMIE SHELTER
KNOCKIN ON HEAVENS DOOR
SISTER RAY/LOUIE LOUIE

The Pixies - Paradise Rock Club, Boston, USA - 21.05.2017 (Flac)



Very good FM broadcast. Thanks to the original uploader on Dime.

Notes :
92.5 the River | Boston's Independent Radio | WXRV Broadcast.
Many thanks to babybreese for sending his flac's.

Source   : FM (Unknown equipment)
Lineage  : 2 FLAC files from the taper
Editing : FLAC > Audacity (Remove most of station id's, Labels) > Trader's Little Helper Flac 6 > Foobar v1.3.11 (tagging)
Editing Date : 2017-05-22

Length : 91:22

01. Plaster of Paris (fades in)
02. I've Been Tired
03. Bel Esprit
04. Monkey Gone to Heaven
05. Tenement Song
06. Caribou
07. Might as Well Be Gone
08. The Holiday Song
09. Oona
10. Planet of Sound
11. Gouge Away
12. Talent
13. All the Saints
14. Indie Cindy
15. Where Is My Mind?
16. All I Think About Now
17. Um Chagga Lagga
18. Rock Music
19. Baal's Back
20. No. 13 Baby
21. Classic Masher
22. Wave of Mutilation
23. Crackity Jones
24. Isla de Encanta
25. Head Carrier
26. Bone Machine
27. Levitate Me
28. Cactus
29. Havalina
30. Velouria
31. ~ encore 1
32. Hey


***Enjoy this recording was made by fans for fans.
***Feel free to copy or repost it. Please use the info text file with all your activities.
***Share and trade freely in your own fan base domain.
***Support the artist and always buy official releases.

X-Mal Deutschland - Pandora's Music Box, De Doelen, Rotterdam, The Netherlands - 03.09.1983 (Flac)



Excellent sound. Thanks to Magnix for sharing on Dime.

Taken from the 33rd Dutch VPRO "Night Train" 747 AM radio broadcast / FM cable radio broadcast, February 1, 2002.

Source and lineage (taped and transferred by Magnix): FM cable > Tape > WAV > FLAC level 8.

Used software: CDWave v1.94.5 > Cool Edit Pro v2.00 > CDWave v1.98 > FLAC v1.2.1 as build in CDWave v1.98.

Another tape from the Magnix Live Archive.

Tracklist:
01. 747 AM "Nighttrain" & DJ intro (1:01)
02. Boomerang (3:45)
03. Sehnsucht (4:12)
04. Orient (4:25)
05. Incubus Succubus (4:59)
06. Qual (3:45)
07. Zu Jung Zu Alt (3:23)
08. Stummes Kind (5:07)
09. DJ outro Xmal Deutschland (0:14)

Total running time: 30 minutes and 51 seconds.

Swans - Marc Riley Session, Media City, Manchester, UK - 22.05.2017 (MP2)



Excellent sound. Thanks to the original uploader on FDime.

Digital Satellite (live) broadcast 2017-05-22 MPEG1 layer 2 48kHz @ 160kbps:
BBC Radio 6 Music > DVB-S > TBS 6984 > DVBviewer > .mp2 >
Mpeg2Schnitt (trimming) > .mp2. Tags added with Mp3tag.

"Screen Shot" was broadcast on Gideon Coe show immediately following the Marc Riley show,
(and was recorded, not played live for Gideon Coe).

  1. Interview / The Man Who Refused To Be Unhappy     15:56
  2. Interview / The Glowing Man  16:31
  3.  Screen Shot                            6:20

Total Time : [38:48]


Nearly God (Tricky, Terry Hall, Martina Topley Bird) - The White Room, London, UK - 21.03.1996 (MPG)







Tricky as Nearly God performing with guest vocals of Terry Hall of The Specials and Martina Topley Bird. Thanks to the anonimous collaborator for sending me this video to share here.

Lineage: TV broadcast -> VHS (0)-> Panasonic NV-HS860 -> EZCAP With Arcsoft Showbiz -> MPG

01. Ghost Town
02. Poems

Total Time. 06min 09s

Do Not Sell!
Enjoy.


Format                                   : MPEG-PS
File size                                : 190 MiB
Duration                                 : 6mn 9s
Overall bit rate                         : 4 300 Kbps
Writing library                          : ArcSoft MPEG-2 NTSC

Video
ID                                       : 224 (0xE0)
Format                                   : MPEG Video
Format version                           : Version 2
Format profile                           : Main@Main
Format settings, BVOP                    : Yes
Format settings, Matrix                  : Custom
Format settings, GOP                     : M=3, N=15
Duration                                 : 6mn 9s
Bit rate                                 : 4 096 Kbps
Width                                    : 640 pixels
Height                                   : 480 pixels
Display aspect ratio                     : 4:3
Frame rate                               : 29.970 fps
Standard                                 : NTSC
Color space                              : YUV
Chroma subsampling                       : 4:2:0
Bit depth                                : 8 bits
Scan type                                : Progressive
Compression mode                         : Lossy
Bits/(Pixel*Frame)                       : 0.445
Time code of first frame                 : 00:00:00:00
Time code source                         : Group of pictures header
GOP, Open/Closed                         : Open
Stream size                              : 180 MiB (95%)
Writing library                          : ArcSoft MPEG-2 NTSC
Color primaries                          : BT.470 System M
Transfer characteristics                 : BT.470 System M
Matrix coefficients                      : BT.601

Audio
ID                                       : 192 (0xC0)
Format                                   : MPEG Audio
Format version                           : Version 1
Format profile                           : Layer 2
Duration                                 : 6mn 9s
Bit rate mode                            : Constant
Bit rate                                 : 128 Kbps
Channel(s)                               : 2 channels
Sampling rate                            : 44.1 KHz
Compression mode                         : Lossy
Stream size                              : 5.64 MiB (3%)

RE-UPLOAD: Christian Death - Alexandria Hotel, Los Angeles, USA - 22.12.1983 (Flac)





Another concert kindly shared by Superblasted, a HUGE Thank You to Him for this series of CD concerts.

Tape (audience / unknown generation) transfered into CD received in a trade in late 90's
Lineage: CD > EAC > Audacity (speed corrected) > WAV > FLAC > You

Original Info File:

Sound is pretty raw, but this is an historical performance.

This is the first Christian Death gig with joining team Valor, Gitane Demone, Constance and David Glass,
who will bring us one of the most intriging and beautiful piece of music (at least to me): Catastrophe Ballet.

New songs and new versions are tested here (ie. Burnt offerings with Electra Descending lyrics, first performance of The Drowning...) wich make this one a must have gig!

Enjoy !

Setlist:


01. Awake at the Wall (instrumental)
02. Sleepwalk
03. Cavity - First Communion
04. Figurative Theatre          
05. Resurection - Sixth Communion
06. Face
07. Working On Beyond  
08. Romeo's Distress
09. Burnt Offerings
10. Theatre Of Pain
11. The Drowning


RE-UPLOAD: The Nefilim - Longhorn, Stuttgart, Geremany - 12.12.1993 (MP3)



Stiil looking for a lossless version of this one, for now this what I have MP3 2556kbps. I'm not sure who was the original uploader but I leave here my Thank You to him. Good sound and a highly charged performance.

Tracklist:
01.24th Moment / Still Life
02. Xodus
03. Pazuzu (Black Rain)
04. Shine
05. Moonchild
06. Dawnrazor
07. Zoon III (Wake World)
08. Penetration
09. Venus Decomposing
10. Last Exit for the Lost
11. Chord of Souls


Dawn After Dark - Vinyl Collection 1988-1989 (MP3)





A new gift from RobH, he sent us the link for his vinyl rips of Dawn After dark's only 3 vinyl releases. The first EP was alreadu«y in the blog in Flac, but the other 2 are still very difficult to find nowadays.

Crystal High / See-Rap EP (1988)

Tracklist
A1     Crystal High    
A2     Ghetto Gods & Go Go Gurus    
B1     See-Rap    
B2     To Kill A Friendship


Maximum Overdrive (1989)

Tracklist
A     Maximum Overdrive    
B1     Let Me Touch    
B2     Dreamstress

The Groove (1989)

Tracklist

A     The Groove
B1     No Shame
B2     Is There Time?

RE-UPLOAD: Moonspell - Campo Pequeno, Lisboa, Portugal - 12.05.2012 (Flac)



Here's one I posted on DIME. It makes sense to posted here also. Portugal's pride in everyting related to dark music.

Taper: circle
Gear: Sony MZ-RH10 HiMD + Sony ECM-717 Mic
Lineage: MD -> Audacity (normalize and Fades) -> TLH -> Flac (level 6)

NOTES:

A very special night of presentaion of their new double CD "Alpha Noir/ Omega White" with both records being played entirely in two diferent sets, completed with songs from the band's back catalogue that were close in aesthetic. Most of these songs won't be played live regulary (If ever again) at least for the time being, as the bands tour for this year is mainly festivals.

The stage was changed inbetween both sets, in the first part it was only the band with littledecoration on stage but lots of pyrothecnic, second part had three video screens with that projected films that were made by students of a portuguese video school. The videos were simple but extremely effective and gave the second set a readically diferent look. The pyrothecnics were substituted by falling "snow" on this set.

The band seemed less at ease with the "Omega White" material and Fernando decided to introduce all the songs almost from the begining, he seemed almost apologetical about the songs (don't know why, that album contains some of Moonspell's best songs in a decade). this is accentuated by the furiously speedy version of "Opium" (2:30 minutes only, probably the fastest version ever) that immediatly followed the last Omega song.

On the second set, the band was joined on stage by Carmen Simões (Ava Inferi) and Silvia Guerreiro (Godspeed Society) and Opus Diabolicum (two cello players).

The venue was full and the response to the public was quite enthusiastic to the new material. Fernando Ribeiro talked a lot, introducing songs, explaning some of the contents of lyrics and introducing the concept of the double album,I edited those talking parts into full tracks because they're in portuguese (Moonspeel native language), meaning that most of you won't understand what he says and maybe want to leave them out if burning a CD or doing a playlist.

Buy the new record "Alpha Noir" with the Bonus CD "White Omega", it really is worth it!



Setlist:

01. Promoter Intro

Set 1: Alpha Noir

02. Intro
03. Axis Mundi
04. Lickanthrope
05. Versus
06. Alpha Noir
07. (talking to the audience)
08. Em Nome do Medo
09. Opera Carne
10. Love is Blasphemy
11. (talking to the audience)
12. Grand Stand
13. Sine Missione
14. Finisterra
15. Night Eternal
16. Wolfshade (A Werewolf Masquerade)
17. Vampiria
18. (Jam - talking to the audience)
19. Alma Mater (missing last 15 seconds)

Set 2: Omega White

20. White Omega
21. White Skies
22. Fire Season
23. (Dedication to Peter Steele)
24. New Tears Eve
25. (talking to the audience)
26. Herodisiac
27. (Special Guests Introduction)
28. Incantatrix
29. (talking to the audience)
30. Sacrificial
31. (talking to the audience)
32. A Greater Darkness
33. Opium
34. An Erotic Alchemy
35. Raven Claws
36. (talking to the audience)
37. Scorpion Flower

Encore:

38. (Encore Break-Final Speech)
39. Full Moon Madness

Do Not Sell!!!
For sharing puposes only!
Support the band by going to the concerts and buying merchandise.


http://moonspell.com/
www.moonspell.rastilho.com/
http://www.facebook.com/moonspellband
http://www.myspace.com/moonspell

RE-UPLOAD: Deborah Harry - The Ultimate Blonde - Bootleg (Flac)




I shared this one on DIME yesterday and was quite welcomed, so might as well post it here, just in case. Found this while searching a friend's record collection and thought it would be cool to liberate it. Sound is excellent, sourced on two different Radio broadcasts.

Lineage: Bootleg CD -> TLH -> Flac (Level 8)




Tracklist:

Summer XS, Wembley Stadium, London, England - 13 July 1991

01. Union City Blue
02. Dreaming
03. I Want That Man
04. Heart Of Glass
05. Rapture
06. (I'm Always) Touched By Your Presence Dear
07. Hanging Around On The Telephone
08. Standing In My Way
09. The Bright Side
10. French Kissin' In The USA
11. Call Me
12. Atomic

Town & Country Club, London, England - 30 November 1989

13. The Hunter
14. Love Light
15. Get Your Way
16. Kiss It Better
17. Detroit 442
18. Bike Boy

Do Not Sell!
Support the artist by buying the official releases!
Please keep it lossles, MP3 just for personal use, please.
Enjoy!

Sunday, 14 May 2017

RE-UPLOAD: The Sisters Of Mercy - Wembley Arena, London, UK - 26.11.1990 (Flac)



The last of two concerts in a row in this venue, I already posted the one from the 24th of November. I

Setlist:
01. First and Last and Always
02. Lucretia My Reflection
03. Body and Soul
04. Detonation Boulevard
05. Ribbons
06. Dominion/Mother Russia
07. Flood II
08. Valentine
09. Heartland
10. Doctor Jeep
11. Body Electric
12. Amphetamine Logic
13. Marian
14. Alice
15. Gimme Shelter
16. This Corrosion
17. Something Fast
18. Temple of Love
19. Vision Thing
20. 1969

Depeche Mode - Ziggo Dome, Amsterdam, Netherlands - 07.05.2017 (Flac)




Thanks to the taper for sharing his recording on Dime.

Original Info File:

Global Spirit Tour

Taper: ONE8UNG

Setlist:

01. Intro
02. Going Backwards
03. So Much Love
04. Barrel Of A Gun
05. A Pain That I'm Used To
06. Corrupt
07. In Your Room
08. World In My Eyes
09. Cover Me
10. Home
11. A Question Of Lust
12. Poison Heart
13. Where's The Revolution
14. Wrong
15. Everything Counts
16. Stripped
17. Enjoy The Silence
18. Never Let Me Down Again
19. Encore Break
20. Somebody
21. Walking In My Shoes
22. Heroes (David Bowie Cover)
23. I Feel You
24. Personal Jesus
25. Outro

- HARDWARE: CA-11 (OMNI) => CA-UBB => iRiver H340 (Rockbox OS & Kingston CompactFlash)
- SOFTWARE: Adobe Audition CC => CD Wave Editor => TLH (flac level 8) => MP3TAG


Taper wishes:


- Distribute this bootleg only as the original flac files with the original Checksum & Info file!
- Do NOT remaster or use this bootleg for a matrix without permission!

Massive Attack - The White Room, London, UK - 02.03.1996 (MPG)






Thanks to the anonimous collaborator for sending me this video to share here.

NOTES: The date is from the broadcast

Part of the TXDRVR collection of videos, this is TXDRVR051.

Lineage: TV broadcast -> VHS (0)-> Panasonic NV-HS860 -> EZCAP With Arcsoft Showbiz -> MPG

Tracklist:

01. Karmacoma
02. Eurochild (Euro Zero Zero)

Total Time: 9m 11s

Do Not Sell!
Enjoy.

Format                                   : MPEG-PS
File size                                : 283 MiB
Duration                                 : 9mn 11s
Overall bit rate                         : 4 300 Kbps
Writing library                          : ArcSoft MPEG-2 NTSC

Video
ID                                       : 224 (0xE0)
Format                                   : MPEG Video
Format version                           : Version 2
Format profile                           : Main@Main
Format settings, BVOP                    : Yes
Format settings, Matrix                  : Custom
Format settings, GOP                     : M=3, N=15
Duration                                 : 9mn 11s
Bit rate                                 : 4 096 Kbps
Width                                    : 640 pixels
Height                                   : 480 pixels
Display aspect ratio                     : 4:3
Frame rate                               : 29.970 fps
Standard                                 : NTSC
Color space                              : YUV
Chroma subsampling                       : 4:2:0
Bit depth                                : 8 bits
Scan type                                : Progressive
Compression mode                         : Lossy
Bits/(Pixel*Frame)                       : 0.445
Time code of first frame                 : 00:00:00:00
Time code source                         : Group of pictures header
GOP, Open/Closed                         : Open
Stream size                              : 269 MiB (95%)
Writing library                          : ArcSoft MPEG-2 NTSC
Color primaries                          : BT.470 System M
Transfer characteristics                 : BT.470 System M
Matrix coefficients                      : BT.601

Audio
ID                                       : 192 (0xC0)
Format                                   : MPEG Audio
Format version                           : Version 1
Format profile                           : Layer 2
Duration                                 : 9mn 11s
Bit rate mode                            : Constant
Bit rate                                 : 128 Kbps
Channel(s)                               : 2 channels
Sampling rate                            : 44.1 KHz
Compression mode                         : Lossy
Stream size                              : 8.41 MiB (3%)

RE-UPLOAD: Siouxsie & The Banshees - Riviera Theatre, Chicago, USA - 24.05.1986 (Flac)


Excellent soundboard. Taken from the "The Sweetest Chill" bootleg CD (Babyface Records, BF011). Thanks to Chris for sharing it on Dime.

Lineage : Silver CD -> EAC (Accurate+CacheOff) w/ PLEXTOR DVD PX116A2 -> FLAC 1.1.2 (level 8/A.o.S.B/Verify) -> You !

Track list :
Cities in Dust
Green
Fingers
The Sweetest Chill
Cannons
Christine
Melt!
Bring Me the Head of the Preacher Man
92 Degrees
Switch
Painted Bird
Arabian Knights
Happy House
Dazzle
Candyman
Paradise Place
Israel
Spellbound

Enjoy, and PLEASE share what you have, or at least leave a comment (critic, praise, anything you might find interesting to say)
Chris


Placebo - Coliseu, Lisboa, Portugal - 02.05.2017 (Flac)




Taper: circle
Gear: Edirol R-05 with internal mics
Lineage: WAV -> Audacity -> TLH -> Flac 8


Setlist:
01. Intro
02. Pure Morning
03. Loud Like Love
04. Jesus Son
05. Soulmates
06. Special Needs
07. Lazarus
08. Too Many Friends
09. Twenty Years
10. I Know
11. Devil in the Details
12. Space Monkey
13. Exit Wounds
14. Protect Me from What I Want
15. Without You I'm Nothing
16. 36 Degrees
17. Lady of the Flowers
18. Brian Molko Speech
19. For What It's Worth
20. Slave to the Wage
21. Special K
22. Song to Say Goodbye
23. The Bitter End
24. Encore Break
25. Teenage Angst
26. Nancy Boy
27. Infra-red
28. Encore Break
29. Running Up That Hill/Metal Machine Music (Feedback outro)

Don Not Sell!
Support the band by buying official products.
Enjoy.

Digital 21 with Stefan Olsdal - Coliseu, Lisboa, Portugal - 02.05.2017 (Flac)


Support for Placebo, a side project of Stefan Olsdal the bass player of Placebo. Electronic music with a rock feeling and a string quartet.

Taper: circle
Gear: Edirol R-05 with internal mics
Lineage: WAV -> Audacity -> TLH -> Flac 8

Setlist:
01. War
02.
03.
04. Symmetry
05. Rebellion

Don Not Sell!
Support the band by buying official products.
Enjoy.

David Sylvian - Visions Of Sylvian (Flac)



A Fan made collection of rare tracks found somewhere on the net a long time ago. Don't have on the lineage apart of what is written on the back artwork.  .

Tracklist:

01. Taking The Veil (Remix)
02. Blue Of Noon
03. Forbidden Colours (Version)
04. Weathered Wall (Instrumental)
05. Buoy (Remix)


RE-UPLOAD: Diamanda Galas - Jazzfestival, Saalfelden, Austria - 26.08.2000 (Flac)

,


Diamanda Galas solo on piano. Huge Thanks to Stuffus for sharing this recording.

Source: Ö1 Austrian Radio (ORF) FM broadcast
This is the second half of the concert, because of technical problems on stage.
Excellent sound-

Lineage:
FM (rooftop antenna) > Akai Tuner > JVC VHS HiFi VCR > Sony UHG-HiFi Tape > HD > WaveLab > CDR > EAC > TLH flac 6 > Dime


tracklist * running time : 38'52"
-----------------------------------
1_Supplica a Mia Madre  3:32
2_Try Me  4:55
3_Abel et Cain  5:16
4_Dead Cat On The Line  3:13
5_Keigome Keigome  3:07
6_Todesfuge  6:39
7_Dancing In The Dark  3:55
8_See That My Grave Is Kept Clean  4:58
9_Gloomy Sunday  3:13

--
Enjoy it,
Stuffus

RE-UPLOAD: The Beatnigs - Römer, Bremen, Germany - 27.07.1989 (Flac)



Probably the only Black Power industrial band in the world,  but on top of that, they're excellent! One of the hidden secrets of the 80's. Their only album was released by Alternative Tentacles.  Excellent sound from an FM broadcast. Thanks to the original uploader.

Original lineage: fm (radio bremen 2), pioneer ct676, maxell xl2,!!! NOW ----> sony wm d6c,tape,terratec dmx 6 fire, clean 5, flac (8)

Extended lineage: FLAC > WAV > Sound Forge 8 (track splits) > WAV > FLAC


Setlist:

01. intro
02. ?
03. Malcolm X
04. C.I.A.
0%. Nature
06. Television
07. Financial Leprosy intro
08. Financial Leprosy
09. The Statement On Built In Obsolescence
10. ? //(tape flip)
11. // Suffering intro
12. Suffering
13. Beatnigs
14. encore break
15. Control intro
16. Control
17. Jazzy Beats

LISTEN LOUD    !!!!!!!!!!!!!!!!!!!!!!!

RE-UPLOAD: Dawn After Dark - Junction 10, Walsall, UK, - 01.04.1989 (Flac)



Cassette(Audience,1st gen,Sony FN90) > wav > Adobe Audition(Dehiss left channel of side B-tracks 12-20) > Soundforge(normalise,only used right channel of side A) > CDWave(split on sector boundaries) > flac(6)

The tape ran out during "Maximum Overdrive" and wasn't noticed for a couple of minutes. (Comparing with other versions, the last 44 sec is missing from "Maximum Overdrive" and the first 53 sec is missing from "Don't Fuck  Wiv Her 'Ead".)

There's a stop/start after Make Me Proud, nothing missed.  A couple of times you can hear the guy on the merchandise stall trying to sell t-shirts - the recording must have been made near the back, or it's a small venue and the guy just had a loud voice!

For side A of the cassette the left channel was very poor, fading almost to nothing in parts.  It wasn't worth saving (I tried), and in the end decided to copy the right channel over to the left, so tracks 1 to 11 are in what I call "double mono".  Side B was in a lot better shape and the left channel just needed a light dehissing.

They play an extra long set to make up for the gig being cut short last time they were in Birmingham(Xmas'88).

01 Intro
02 Crystal High
03 Midnight Train
04 Let Me Touch
05 Nothing Can Fulfill Me Without Your Love
06 The Groove
07 Down To The Ground
08 Dead On Time
09 When Will You Come Home To Me
10 Count Every Minute
11 Maximum Overdrive (end cut)
12 Don't Fuck Wiv Her 'Ead (start cut)
13 Sweet Chiquita
14 Make Me Proud
15 Way To Go
16 Wild Wild Love
(encore)
17 Is There Time?
18 No Shame
19 Habit
20 (You Gotta) Fight for Your Right (To Party!)

Length - 84:09

Uploaded by Egg_Crisis for Dark Circle Room

Convert to mp3 for personal use only. Do not circulate in FLAC or WAV format without this info file.

Monday, 1 May 2017

RE-UPLOAD: The Sisters of Mercy - The Damage Is Done - vinyl bootleg LP (Flac)



From original Poster TXT file:

"Here's a classic vinyl Sisters bootleg album, featuring (a repeat of) an 1981 concert from Leeds, the ABBA-cover from the Danceteria in NYC '84 and part of a fantastic audience recording of the band playing in Münster during the 1983 Europe tour.
Because everybody's probably sick and tired of always hearing the same AUD-recording of Gimme x3 from NYC, I've also added the rarer SBD-recording of the same song from Detroit '84. This led me to add two further rarities: a very good recording of Some Kind of Stranger from the Lyceum '85 (a much better recording than available on the better known vinyl 2LP of the same gig) and a SBD-recording (I think) of the band doing a short rendition of Stairway to Heaven in Blackburn '85 (this time with AE on vocals). All vinyl sources have been cleaned up."

In FLAC. The RAR files open separately.

1981-05-04 St. John's Leeds (SBD)
01. Damage Done
02. Watch
03. Teachers/Adrenochrome
04. Sister Ray

1984-04-13 Danceteria New York City NY (AUD)
05. Gimme Gimme Gimme (A Man After Midnight)

1983-09-01 Odeon Münster (AUD)
06. Burn
07. Valentine
08. Anaconda
09. Temple of Love
10. Adrenochrome
11. Kiss The Carpet
12. Body Electric


BONUS

1984-04-16 St. Andrew's Detroit MI (SBD)
Gimme Gimme Gimme (A Man After Midnight)

1985-03-24 Lyceum London (SBD)
Some Kind of Stranger

1985-03-21 King George's Hall Blackburn (SBD)
Stairway to Heaven

New Order - Coachella Festival, Indio, CA, USA - 16.04.2017 (1080p)







As requested. Thanks to the original uploader on Dime.

Lineage: YouTube Webcast (1080p) -> downloaded .ts segments (batch script) -> TSSplitter (join) -> FFmpeg (edit) -> Uncompressed.ts

Video: H264 / 1920x1080 / 5000 Kbps / 30 Fps
Audio: AAC 2.0 / 128 Kbps / 48.0 KHz / Stereo

Length: 01:30:50

Setlist:
01. Singularity
02. Regret
03. Your Silent Face
04. Tutti Frutti
05. Bizarre Love Triangle
06. Waiting for the Sirens' Call
07. Plastic
08. The Perfect Kiss
09. True Faith
10. Blue Monday
11. Temptation
Encore:
12. Decades (Joy Division cover)
13. Love Will Tear Us Apart (Joy Division cover)


The Sex Pistols - Le Zenith, Paris, France - 04.07.1996 (Flac)



Excellent soundboard. Thanks to the original uploader on Dime.

Original Info File:

Lineage - SBD > ? > PC > WAV > TLH (Flac 8) > Dime...

Setlist :

01 - Intro
02 - Bodies
03 - Seventeen
04 - New York
05 - No Feelings
06 - Did You No Wrong
07 - God Save The Queen
08 - Liar
09 - Satellite
10 - Stepping Stone
11 - Holidays In The Sun
12 - Pretty Vacant
13 - E.M.I.
14 - Anarchy In The UK
15 - Problems
16 - Roadrunner
17 - No Fun

This is a really well recorded, well balanced tape.  Taken from the soundboard, it's a very enjoyable lively show with the band firing on all

engines.  The mix is superb, although the bass is a little hard to distinguish - otherwise, there's no problems with this at all.  There is an audience tape of the show, but this is a very definite welcome upgrade, very definitely recommended...As no checksums were included, I've added them...

Don't turn this to mp3 - decode it to wav using tlh, & burn 'em...


Kraftwerk - Hollywood Bowl, Los Angeles, CA, USA - 18.09.2016 (Flac)


Excellent matrix. Thanks to the original uploader on Dime.

Original Info File:

Source: ALD + Audience Matrix

Source #1: AT831 + BB + Edirol RO9HR
Source 1 Taper: ijwthstd

Source #2: ALD > Tascam DR-2D
Source #1 Taper: Anonymous

Edit: Master WAVs > Adobe Audition (normalize to -0.1 db, matrix sources 50/50) > xACT > FLAC

Setlist:
Intro - Numbers
Computer World
It’s More Fun To Compute - Home Computer
Computer Love
The Man Machine
Spacelab
The Model
Neon Lights
Metropolis
Autobahn
Geiger Counter - Radioactivity
Electric Cafe
Tour De France 1983
Tour De France Etape 1
Tour De France Etape 2
Trans Europe Express/Metal On Metal/Abzug
The Robots
Aerodynamik
Planet of Visions
Boing Boom Tschak
Techno Pop
Musique Non Stop


Notes:
I’ve been meaning to work on this for some time now. I got both of these from the tapers and was asked to make a matrix of the two. The ALD is a nice supplement to the audience recording that would be great on its own, as the ALD was recorded a little low. But the ALD gives the vocals a nice boost and the sound more full!

Good performance and the last show of the US Tour. Thanks for ijwthstd and anonymous for sending over their recordings! Enjoy if you grab it!


Kirlian Camera - Rarities (Flac)



This is an update to the angels of Europe bootleg. Thanks to KCfan for sending me this recording to share here.

Tracklist:
1.    Blue Room (Original 7" Version)
2.    Call Me
3.    Ocean (Euro 12" Version)
4.    Silence (by East Wall)
5.    Helden Platz (12" Version)
6.    A Nothing Life (Sixth Comm cover version)
7.    Eclipse (Live in Munich 1993)
8.    Ars Moriendi II
9.    Eclipse (V.1994/B)
10.    After Winter (AB Version)
11.    Coroner's Sun (MB Version)
12.    Lunar Cockroach (by Camera Artica)
13.    Drifting (Live Rehearsals 2003)
14.    Arkhangel'Sk (Acoustic Vision)
15.    Silver Surfer's Shroud (by Siderartica)
16.    King Snow's Garden (by Siderartica)
17.    Aurora (with Axon Neuron/Vagwa)

Tracks 1 - 2 taken from the single “Blue Room" (1985)
Track 3 taken from the Spanish/French release of the "Ocean" 12" (1986)
Track 4 is a Kirlian Camera song, recorded in 1985 and released 1991 on the LP "Silence" by East Wall
Track 5 taken from "Helden Platz" 12" (1987)
Track 6 taken from the cassette tape version of the "Eclipse – Das Schwarze Denkmal" album (1988)
Track 7 taken from "Living For Music" compilation, recorded live at Backstage, Munich, July 4 1993
Track 8 taken from "Tenebrae" compilation (1995)
Track 9 taken from "1654 The Cave I" compilation (1994)
Track 10 taken from "Thaglasz 6" compilation (2000)
Track 11 taken from "Praha - 26th June 2004" compilation (2004)
Tracks 12 - 14 taken from "FOS III" compilation (2003)
Tracks 15 - 16 taken from Siderartica picture 7" (2005)
Track 17 taken from Axon Neuron/Vagwa "Documents 1995 - 2005" double CD (2005)


Jenny Hval - Lux, Lisboa, Portugal - 30.04.2017 (Flac)


taper: circle
Gear: Roland R-05 with internal mics
Lineage: WAV -> Audacity -> TLH -> Flac (level 8)

Setlist:

01. Lorna
02. That Battle is Over
03. The Plague
04.
05. Period Piece
06. Secret Touch
07. Female Vampire
08. Conceptual Romance

Time: 54.05 min.

Do Not Sell!
Support the artist and buy official products.
Enjoy

Red Lorry Yellow Lorry - Schlachthof,Bremen, Germany - 29.03.1986 (MPG)








Thanks to the anonimous collaborator for sending me this veido to share here.

Lineage: Audience Recording -> VHS (low)-> Panasonic NV-HS860 -> EZCAP With Arcsoft Showbiz -> MPG
 

Setlist:
Intro (The Good, The Bad And The Ugly)
Blitz
Shout At The Sky
Last Train
Jipp
Which Side
Talk About The Weather
Hold Yourself Down
Walking On Your Hands
Hand On Heart
Mescal Dance
Save My Soul
Hollow Eyes
Strange Dream
Chance
Shout At The Sky 


 Total Time: 51m 49s

Do Not Sell!
Enjoy.

Format                                   : MPEG-PS
File size                                : 1.94 GiB
Duration                                 : 51mn 49s
Overall bit rate mode                    : Variable
Overall bit rate                         : 5 365 Kbps
Writing library                          : ArcSoft MPEG-2 PAL

Video
ID                                       : 224 (0xE0)
Format                                   : MPEG Video
Format version                           : Version 2
Format profile                           : Main@Main
Format settings, BVOP                    : Yes
Format settings, Matrix                  : Custom
Format settings, GOP                     : M=3, N=10
Format settings, picture structure       : Frame
Duration                                 : 51mn 49s
Bit rate mode                            : Variable
Bit rate                                 : 5 035 Kbps
Maximum bit rate                         : 7 500 Kbps
Width                                    : 720 pixels
Height                                   : 576 pixels
Display aspect ratio                     : 4:3
Frame rate                               : 25.000 fps
Standard                                 : PAL
Color space                              : YUV
Chroma subsampling                       : 4:2:0
Bit depth                                : 8 bits
Scan type                                : Interlaced
Scan order                               : Top Field First
Compression mode                         : Lossy
Bits/(Pixel*Frame)                       : 0.486
Time code of first frame                 : 00:00:00:00
Time code source                         : Group of pictures header
GOP, Open/Closed                         : Closed
Stream size                              : 1.82 GiB (94%)
Writing library                          : ArcSoft MPEG-2 PAL
Color primaries                          : BT.601 PAL
Transfer characteristics                 : BT.470 System B, BT.470 System G
Matrix coefficients                      : BT.601

Audio
ID                                       : 192 (0xC0)
Format                                   : MPEG Audio
Format version                           : Version 1
Format profile                           : Layer 2
Duration                                 : 51mn 49s
Bit rate mode                            : Constant
Bit rate                                 : 224 Kbps
Channel(s)                               : 2 channels
Sampling rate                            : 48.0 KHz
Compression mode                         : Lossy
Delay relative to video                  : -22ms
Stream size                              : 83.0 MiB (4%)



Specimen - Paris Theatre, London, UK - 19.11.1983 (Flac)



FM unknown generation. Thanks to the originaluploader on Dime.

Maxell XLII-60 > Denon DRW-850 > wavelab 6 > TLH > Make Torrent 2 > dime
Azimuth calibrated and SBE corrected

setlist
01-introduction
02-Kiss Kiss, Bang Bang
03-Wet Warm Cling Film Red Velvet Crush
04-Ooze
05-Syria
06-The Beauty Of Poison
07-Stand Up, Stand Out

Please DO NOT SELL or redistribute in lossy formats.

The XX - Le Zénith, Paris, France - 14.02.2017 (Flac)



Excellent sound. Thanks to the original uploader.

Radio > ZOOM H1 > Computer USB > Magix Studio > THL Flac8

MC Speaks between songs


Setlist:

01-Say Something Loving
02-Crystalised
03-Islands
04-I Dare You
05-Lips
06-Basic Space
07-Performance
08-Too Good (reprise de Drake)
09-A Violent Noise
10-Brave for You
11-Infinity
12-VCR
13-Dangerous
14-Fiction
15-Shelter
16-Loud Places (reprise de Jamie xx )
17---Encore---
18-On Hold
19-Intro
20-Angels