Sunday, 14 May 2017

Massive Attack - The White Room, London, UK - 02.03.1996 (MPG)






Thanks to the anonimous collaborator for sending me this video to share here.

NOTES: The date is from the broadcast

Part of the TXDRVR collection of videos, this is TXDRVR051.

Lineage: TV broadcast -> VHS (0)-> Panasonic NV-HS860 -> EZCAP With Arcsoft Showbiz -> MPG

Tracklist:

01. Karmacoma
02. Eurochild (Euro Zero Zero)

Total Time: 9m 11s

Do Not Sell!
Enjoy.

Format                                   : MPEG-PS
File size                                : 283 MiB
Duration                                 : 9mn 11s
Overall bit rate                         : 4 300 Kbps
Writing library                          : ArcSoft MPEG-2 NTSC

Video
ID                                       : 224 (0xE0)
Format                                   : MPEG Video
Format version                           : Version 2
Format profile                           : Main@Main
Format settings, BVOP                    : Yes
Format settings, Matrix                  : Custom
Format settings, GOP                     : M=3, N=15
Duration                                 : 9mn 11s
Bit rate                                 : 4 096 Kbps
Width                                    : 640 pixels
Height                                   : 480 pixels
Display aspect ratio                     : 4:3
Frame rate                               : 29.970 fps
Standard                                 : NTSC
Color space                              : YUV
Chroma subsampling                       : 4:2:0
Bit depth                                : 8 bits
Scan type                                : Progressive
Compression mode                         : Lossy
Bits/(Pixel*Frame)                       : 0.445
Time code of first frame                 : 00:00:00:00
Time code source                         : Group of pictures header
GOP, Open/Closed                         : Open
Stream size                              : 269 MiB (95%)
Writing library                          : ArcSoft MPEG-2 NTSC
Color primaries                          : BT.470 System M
Transfer characteristics                 : BT.470 System M
Matrix coefficients                      : BT.601

Audio
ID                                       : 192 (0xC0)
Format                                   : MPEG Audio
Format version                           : Version 1
Format profile                           : Layer 2
Duration                                 : 9mn 11s
Bit rate mode                            : Constant
Bit rate                                 : 128 Kbps
Channel(s)                               : 2 channels
Sampling rate                            : 44.1 KHz
Compression mode                         : Lossy
Stream size                              : 8.41 MiB (3%)

massivewhite1996

No comments:

Post a Comment