Monday, 5 March 2018

Nick Cave / These Imortal Souls - Tele 5 TV Show - XX.09.1988 (MPG)







A TV show with interviews and Promo Clips. Thanks to the anonimous collaborator for sending this video to share here.


Contents:
Interview with Rowland S. Howard
These Immortal Souls - Marry Me (Promo Clip)
Nick Cave & The Bad Seeds - Deanna (Promo Clip)
Interview with Nick Cave

Total time: 21.53min

Format                                   : MPEG-PS
File size                                : 848 MiB
Duration                                 : 21 min 54 s
Overall bit rate mode                    : Variable
Overall bit rate                         : 5 412 kb/s
Writing library                          : ArcSoft MPEG-2 PAL

Video
ID                                       : 224 (0xE0)
Format                                   : MPEG Video
Format version                           : Version 2
Format profile                           : Main@Main
Format settings                          : CustomMatrix / BVOP
Format settings, BVOP                    : Yes
Format settings, Matrix                  : Custom
Format settings, GOP                     : M=3, N=10
Format settings, picture structure       : Frame
Duration                                 : 21 min 54 s
Bit rate mode                            : Variable
Bit rate                                 : 5 080 kb/s
Maximum bit rate                         : 7 500 kb/s
Width                                    : 720 pixels
Height                                   : 576 pixels
Display aspect ratio                     : 4:3
Frame rate                               : 25.000 FPS
Standard                                 : PAL
Color space                              : YUV
Chroma subsampling                       : 4:2:0
Bit depth                                : 8 bits
Scan type                                : Interlaced
Scan order                               : Top Field First
Compression mode                         : Lossy
Bits/(Pixel*Frame)                       : 0.490
Time code of first frame                 : 00:00:00:00
Time code source                         : Group of pictures header
GOP, Open/Closed                         : Closed
Stream size                              : 796 MiB (94%)
Writing library                          : ArcSoft MPEG-2 PAL
Color primaries                          : BT.601 PAL
Transfer characteristics                 : BT.470 System B, BT.470 System G
Matrix coefficients                      : BT.470 System B, BT.470 System G

Audio
ID                                       : 192 (0xC0)
Format                                   : MPEG Audio
Format version                           : Version 1
Format profile                           : Layer 2
Duration                                 : 21 min 53 s
Bit rate mode                            : Constant
Bit rate                                 : 224 kb/s
Channel(s)                               : 2 channels
Sampling rate                            : 48.0 kHz
Compression mode                         : Lossy
Stream size                              : 35.1 MiB (4%)



No comments:

Post a Comment