Tuesday, 28 February 2017

Red Lorry Yellow Lorry - Schlachthof, Bremen, Germany - 10.09.1988 (MPG)






 Thanks to the anonimous collaborator for sending me this video to share here.

Lineage: Audience Recording -> VHS (low)-> Panasonic NV-HS860 -> EZCAP With Arcsoft Showbiz -> MPG


01 Intro
02 Open Up
03 Do You Understand
04 He's Read
05 Nothing Wrong
06 Big Stick
07 She Said
08 Sayonara
09 Only Dreaming
10 Spinning Round
11 Hands Off Me
12 Cut Down
13 Hold Yourself Down
14 Generation
15 encore break
16 Walking On Your Hands
17 Shout At The Sky
18 encore break
19 Hollow Eyes
20 Monkeys On Juice
21 encore break
22 Chance

Total Time: 52m 56s

Do Not Sell!
Enjoy.

Format                                   : MPEG-PS
File size                                : 1.59 GiB
Duration                                 : 52mn 56s
Overall bit rate                         : 4 299 Kbps
Writing library                          : ArcSoft MPEG-2 NTSC

Video
ID                                       : 224 (0xE0)
Format                                   : MPEG Video
Format version                           : Version 2
Format profile                           : Main@Main
Format settings, BVOP                    : Yes
Format settings, Matrix                  : Custom
Format settings, GOP                     : M=3, N=15
Duration                                 : 52mn 56s
Bit rate                                 : 4 096 Kbps
Width                                    : 640 pixels
Height                                   : 480 pixels
Display aspect ratio                     : 4:3
Frame rate                               : 29.970 fps
Standard                                 : NTSC
Color space                              : YUV
Chroma subsampling                       : 4:2:0
Bit depth                                : 8 bits
Scan type                                : Progressive
Compression mode                         : Lossy
Bits/(Pixel*Frame)                       : 0.445
Time code of first frame                 : 00:00:00:00
Time code source                         : Group of pictures header
GOP, Open/Closed                         : Open
Stream size                              : 1.51 GiB (95%)
Writing library                          : ArcSoft MPEG-2 NTSC
Color primaries                          : BT.470 System M
Transfer characteristics                 : BT.470 System M
Matrix coefficients                      : BT.601

Audio
ID                                       : 192 (0xC0)
Format                                   : MPEG Audio
Format version                           : Version 1
Format profile                           : Layer 2
Duration                                 : 52mn 56s
Bit rate mode                            : Constant
Bit rate                                 : 128 Kbps
Channel(s)                               : 2 channels
Sampling rate                            : 44.1 KHz
Compression mode                         : Lossy
Stream size                              : 48.5 MiB (3%)


part1
part2
part3

1 comment: