Wednesday, 25 May 2016

John Cale & Special Guests play "The Velvet Underground & Nico" - La Philharmonie, Paris, France - 03.04.2016 (MP4)










From ARTE website

Setlist:
Intro
I'm Waiting for the Man
European Son (with The Libertines)
Lady Godiva's Operation (with Saul Williams)
All Tomorrow's Parties (with Mark Lanegan)
Venus in Furs
I'll Be Your Mirror (with Étienne Daho)
The Gift
There She Goes Again (with Animal Collective)
Sunday Morning
White Light/White Heat (with The Libertines)
Femme Fatale (with Lou Doillon)
Black Angel's Death Song (with Mark Lanegan)
Run Run Run (with The Libertines)
Heroin  (with Saul Williams)
Sister Ray (with The Libertines, Saul Williams, Mark Lanegan, Étienne Daho,
Animal Collective and Lou Doillon)

TRT = 01:25:18

Format                                   : MPEG-4
Format profile                           : Base Media / Version 2
Codec ID                                 : mp42
File size                                : 1.40 GiB
Duration                                 : 1h 25mn
Overall bit rate mode                    : Variable
Overall bit rate                         : 2 344 Kbps
Encoded date                             : UTC 2016-05-18 22:08:00
Tagged date                              : UTC 2016-05-18 22:08:00

Video
ID                                       : 1
Format                                   : AVC
Format/Info                              : Advanced Video Codec
Format profile                           : Main@L3.1
Format settings, CABAC                   : Yes
Format settings, ReFrames                : 3 frames
Codec ID                                 : avc1
Codec ID/Info                            : Advanced Video Coding
Duration                                 : 1h 25mn
Bit rate                                 : 2 214 Kbps
Width                                    : 1 280 pixels
Height                                   : 720 pixels
Display aspect ratio                     : 16:9
Frame rate mode                          : Constant
Frame rate                               : 25.000 fps
Standard                                 : PAL
Color space                              : YUV
Chroma subsampling                       : 4:2:0
Bit depth                                : 8 bits
Scan type                                : Progressive
Bits/(Pixel*Frame)                       : 0.096
Stream size                              : 1.32 GiB (94%)
Encoded date                             : UTC 2016-05-18 22:08:01
Tagged date                              : UTC 2016-05-18 22:08:01
Color range                              : Limited

Audio
ID                                       : 2
Format                                   : AAC
Format/Info                              : Advanced Audio Codec
Format profile                           : LC
Codec ID                                 : 40
Duration                                 : 1h 25mn
Bit rate mode                            : Variable
Bit rate                                 : 125 Kbps
Maximum bit rate                         : 219 Kbps
Channel(s)                               : 2 channels
Channel positions                        : Front: L R
Sampling rate                            : 48.0 KHz
Compression mode                         : Lossy
Stream size                              : 76.5 MiB (5%)
Encoded date                             : UTC 2016-05-18 22:08:01
Tagged date                              : UTC 2016-05-18 22:08:01

part3
part2
part1

2 comments:

  1. Thank You Very Much !!!

    ReplyDelete
  2. Nice one! Very considerate of you. Thank you.

    ReplyDelete