Wednesday, 28 September 2016

The Cult - The Late Show starring Joan Rivers - 14.05.1987 (MPG)








Thanks to the anonimous collaborator for another great video.

Lineage: VHS(Unknown) -> Panasonic NV-HS860 -> EZCAP With Arcsoft Showbiz -> MPEG2

Tracklist:
Lil' Devil
Interview
Born To Be Wild

Time: 8.45 min

Format                                   : MPEG-PS
File size                                : 341 MiB
Duration                                 : 8mn 45s
Overall bit rate mode                    : Variable
Overall bit rate                         : 5 451 Kbps
Writing library                          : ArcSoft MPEG-2 PAL

Video
ID                                       : 224 (0xE0)
Format                                   : MPEG Video
Format version                           : Version 2
Format profile                           : Main@Main
Format settings, BVOP                    : Yes
Format settings, Matrix                  : Custom
Format settings, GOP                     : M=3, N=10
Format settings, picture structure       : Frame
Duration                                 : 8mn 45s
Bit rate mode                            : Variable
Bit rate                                 : 5 119 Kbps
Maximum bit rate                         : 7 500 Kbps
Width                                    : 720 pixels
Height                                   : 576 pixels
Display aspect ratio                     : 4:3
Frame rate                               : 25.000 fps
Standard                                 : PAL
Color space                              : YUV
Chroma subsampling                       : 4:2:0
Bit depth                                : 8 bits
Scan type                                : Interlaced
Scan order                               : Top Field First
Compression mode                         : Lossy
Bits/(Pixel*Frame)                       : 0.494
Time code of first frame                 : 00:00:00:00
Time code source                         : Group of pictures header
GOP, Open/Closed                         : Closed
Stream size                              : 321 MiB (94%)
Writing library                          : ArcSoft MPEG-2 PAL
Color primaries                          : BT.601 PAL
Transfer characteristics                 : BT.470 System B, BT.470 System G
Matrix coefficients                      : BT.601

Audio
ID                                       : 192 (0xC0)
Format                                   : MPEG Audio
Format version                           : Version 1
Format profile                           : Layer 2
Duration                                 : 8mn 44s
Bit rate mode                            : Constant
Bit rate                                 : 224 Kbps
Channel(s)                               : 2 channels
Sampling rate                            : 48.0 KHz
Compression mode                         : Lossy
Delay relative to video                  : -33ms
Stream size                              : 14.0 MiB (4%)

cultonjoan87

No comments:

Post a Comment