Tuesday, 26 April 2016

The Sisters of Mercy - Gazi Music Hall, Athens, Greece - 06.12.2015 (MP3)



Thanks to the French for sending me this recording to share here. Misses the second encore. Audio mp3 from youtube videos in 6 parts. Sound : good +


More
Ribbons
Crash And Burn
Doctor Jeep / Detonation Boulevard
Body Electric
Amphetamine Logic
Alice
Arms
No Time To Cry
Gift That Shines
Dominion / Mother Russia
Summer
Jihad
Valentine
Flood II
Something Fast
Lucretia, My Reflection
Vision Thing
(First And Last And Always)
(Temple Of Love)
(This Corrosion)

The Danse Society - Riverside Studios, London, UK - 24.01.1983 (MPG)






Thanks to the anonimous collaborator..

Lineage: VHS(0) -> Panasonic NV-HS860 -> EZCAP With Arcsoft Showbiz -> MPEG2

Tracklist:
Seduction
Hide
Ambition

Format                                   : MPEG-PS
File size                                : 374 MiB
Duration                                 : 9mn 37s
Overall bit rate mode                    : Variable
Overall bit rate                         : 5 429 Kbps
Writing library                          : ArcSoft MPEG-2 PAL

Video
ID                                       : 224 (0xE0)
Format                                   : MPEG Video
Format version                           : Version 2
Format profile                           : Main@Main
Format settings, BVOP                    : Yes
Format settings, Matrix                  : Custom
Format settings, GOP                     : M=3, N=10
Format settings, picture structure       : Frame
Duration                                 : 9mn 37s
Bit rate mode                            : Variable
Bit rate                                 : 5 097 Kbps
Maximum bit rate                         : 7 500 Kbps
Width                                    : 720 pixels
Height                                   : 576 pixels
Display aspect ratio                     : 4:3
Frame rate                               : 25.000 fps
Standard                                 : PAL
Color space                              : YUV
Chroma subsampling                       : 4:2:0
Bit depth                                : 8 bits
Scan type                                : Interlaced
Scan order                               : Top Field First
Compression mode                         : Lossy
Bits/(Pixel*Frame)                       : 0.492
Time code of first frame                 : 00:00:00:00
Time code source                         : Group of pictures header
GOP, Open/Closed                         : Closed
Stream size                              : 351 MiB (94%)
Writing library                          : ArcSoft MPEG-2 PAL
Color primaries                          : BT.601 PAL
Transfer characteristics                 : BT.470 System B, BT.470 System G
Matrix coefficients                      : BT.601

Audio
ID                                       : 192 (0xC0)
Format                                   : MPEG Audio
Format version                           : Version 1
Format profile                           : Layer 2
Duration                                 : 9mn 37s
Bit rate mode                            : Constant
Bit rate                                 : 224 Kbps
Channel(s)                               : 2 channels
Sampling rate                            : 48.0 KHz
Compression mode                         : Lossy
Delay relative to video                  : -159ms
Stream size                              : 15.4 MiB (4%)

The Damned - Coachella Festival, Empire Polo Grounds, Indio, California - 16.04.2016 (1080p)







Thanks to indykid for sharing on Dime.

Lineage: LIVE Webcast -> FFmpeg (capture & edit) -> .ts
Video: MPEG4 Video (H264) 1920x1080 16:9 4700 Kbps 29.97 fps
Audio: AAC 128 Kbps 48.0 KHz stereo

Setlist:
Street of Dreams
Love Song
I Just Can't Be Happy Today
Ignite
Stranger on the Town
Alone Again Or (Love cover)
The History of the World (Part 1)
New Rose
Neat Neat Neat
Smash It Up

TRT = 00:44:53

MediaInfo:
General
ID                          : 1 (0x1)
Complete name               : The Damned - 2016-04-16 Coachella, Indio, CA [1080p].ts
Format                      : MPEG-TS
File size                   : 1.50 GiB
Duration                    : 44mn 53s
Overall bit rate mode       : Variable
Overall bit rate            : 4 797 Kbps

Video
ID                          : 256 (0x100)
Menu ID                     : 1 (0x1)
Format                      : AVC
Format/Info                 : Advanced Video Codec
Format profile              : High@L4
Format settings, CABAC      : Yes
Format settings, ReFrames   : 1 frame
Codec ID                    : 27
Duration                    : 44mn 53s
Width                       : 1 920 pixels
Height                      : 1 080 pixels
Display aspect ratio        : 16:9
Frame rate mode             : Variable
Color space                 : YUV
Chroma subsampling          : 4:2:0
Bit depth                   : 8 bits
Scan type                   : Progressive
Color range                 : Limited
Color primaries             : BT.709
Transfer characteristics    : BT.709
Matrix coefficients         : BT.709

Audio
ID                          : 257 (0x101)
Menu ID                     : 1 (0x1)
Format                      : AAC
Format/Info                 : Advanced Audio Codec
Format version              : Version 4
Format profile              : LC
Muxing mode                 : ADTS
Codec ID                    : 15
Duration                    : 44mn 55s
Bit rate mode               : Variable
Channel(s)                  : 2 channels
Channel positions           : Front: L R
Sampling rate               : 48.0 KHz
Frame rate                  : 46.875 fps (1024 spf)
Compression mode            : Lossy
Delay relative to video     : -2s 38ms

Menu
ID                          : 4096 (0x1000)
Menu ID                     : 1 (0x1)
Duration                    : 44mn 53s
List                        : 256 (0x100) (AVC) / 257 (0x101) (AAC)
Service name                : Service01
Service provider            : FFmpeg
Service type                : digital television

Chvrches - Coachella Festival, Empire Polo Grounds, Indio, California, USA - 16.04.2016 (1080p)








Thanks to indykid for sharing on Dime.

Setlist:

01. Never Ending Circles
02. We Sink
03. Keep You on My Side
04. Empty Threat
05. Gun
06. Bury It
07. Recover
08. Leave a Trace
09. Clearest Blue
10. The Mother We Share


Lineage: Youtube webstream (1080p m3u8) -> DTA (segments) -> tssplitter (join) -> ffmpeg (cut) -> uncompressed.ts


Mediainfo:

General
ID                                       : 1 (0x1)
Complete name                            : Chvrches 2016-04-16 Coachella [1080p].ts
Format                                   : MPEG-TS
File size                                : 1.61 GiB
Duration                                 : 45mn 0s
Overall bit rate                         : 5 108 Kbps

Video
ID                                       : 256 (0x100)
Menu ID                                  : 1 (0x1)
Format                                   : AVC
Format/Info                              : Advanced Video Codec
Format profile                           : High@L4.0
Format settings, CABAC                   : Yes
Format settings, ReFrames                : 1 frame
Codec ID                                 : 27
Duration                                 : 45mn 4s
Width                                    : 1 920 pixels
Height                                   : 1 080 pixels
Display aspect ratio                     : 16:9
Frame rate mode                          : Variable
Color space                              : YUV
Chroma subsampling                       : 4:2:0
Bit depth                                : 8 bits
Scan type                                : Progressive
Color primaries                          : BT.709-5, BT.1361, IEC 61966-2-4, SMPTE RP177
Transfer characteristics                 : BT.709-5, BT.1361
Matrix coefficients                      : BT.709-5, BT.1361, IEC 61966-2-4 709, SMPTE RP177

Audio
ID                                       : 257 (0x101)
Menu ID                                  : 1 (0x1)
Format                                   : AAC
Format/Info                              : Advanced Audio Codec
Format version                           : Version 4
Format profile                           : LC
Muxing mode                              : ADTS
Codec ID                                 : 15
Duration                                 : 45mn 4s
Bit rate mode                            : Variable / Variable / Variable
Minimum bit rate                         : 113 Kbps / 113 Kbps
Maximum bit rate                         : 165 Kbps / 165 Kbps
Channel(s)                               : 2 channels
Channel positions                        : Front: L R
Sampling rate                            : 48.0 KHz
Compression mode                         : Lossy
Delay relative to video                  : 2ms

Savages - Coachella Festival, Empire Polo Grounds, Indio, California, USA - 15.04.2016 (1080p)







Thanks to indykid for sharing this one on Dime.

Lineage: LIVE Webcast -> FFmpeg (capture & edit) -> .ts
Video: MPEG4 Video (H264) 1920x1080 16:9 4100 Kbps 29.97 fps
Audio: AAC 128 Kbps 48.0 KHz stereo

Setlist:
I Am Here
Sad Person
Shut Up
Husbands
Surrender
When In Love
I Need Something New
The Answer
Hit Me
T.I.W.Y.G.
Adore

TRT = 00:48:53

MediaInfo:
General
ID                          : 1 (0x1)
Complete name               : Savages - 2016-04-15 Coachella, Indio, CA [1080p].ts
Format                      : MPEG-TS
File size                   : 1.44 GiB
Duration                    : 48mn 53s
Overall bit rate mode       : Variable
Overall bit rate            : 4 203 Kbps

Video
ID                          : 256 (0x100)
Menu ID                     : 1 (0x1)
Format                      : AVC
Format/Info                 : Advanced Video Codec
Format profile              : High@L4
Format settings, CABAC      : Yes
Format settings, ReFrames   : 1 frame
Codec ID                    : 27
Duration                    : 48mn 53s
Width                       : 1 920 pixels
Height                      : 1 080 pixels
Display aspect ratio        : 16:9
Frame rate mode             : Variable
Color space                 : YUV
Chroma subsampling          : 4:2:0
Bit depth                   : 8 bits
Scan type                   : Progressive
Color range                 : Limited
Color primaries             : BT.709
Transfer characteristics    : BT.709
Matrix coefficients         : BT.709

Audio
ID                          : 257 (0x101)
Menu ID                     : 1 (0x1)
Format                      : AAC
Format/Info                 : Advanced Audio Codec
Format version              : Version 4
Format profile              : LC
Muxing mode                 : ADTS
Codec ID                    : 15
Duration                    : 48mn 56s
Bit rate mode               : Variable
Channel(s)                  : 2 channels
Channel positions           : Front: L R
Sampling rate               : 48.0 KHz
Frame rate                  : 46.875 fps (1024 spf)
Compression mode            : Lossy
Delay relative to video     : -2s 522ms

Menu
ID                          : 4096 (0x1000)
Menu ID                     : 1 (0x1)
Duration                    : 48mn 53s
List                        : 256 (0x100) (AVC) / 257 (0x101) (AAC)
Service name                : Service01
Service provider            : FFmpeg
Service type                : digital television

The Kills - Coachella Festival, Empire Polo Grounds, Indio, California, USA - 15.04.2016 (1080p)






Thanks to jerpaa for sharing on Dime.

Setlist:

01. No Wow
02. URA Fever
03. Kissy Kissy
04. Hard Habit
05. Heart of a Dog
06. Impossible Tracks
07. Black Balloon
08. Doing It to Death
09. Baby Says
10. Whirling Eye
11. Sour Cherry

Lineage: Youtube webstream (1080p m3u8) -> DTA (segments) -> tssplitter (join) -> ffmpeg (cut) -> uncompressed.ts


Mediainfo:

General
ID                                       : 1 (0x1)
Complete name                            : The Kills 2016-04-15 Coachella [1080p].ts
Format                                   : MPEG-TS
File size                                : 1.70 GiB
Duration                                 : 45mn 11s
Overall bit rate                         : 5 391 Kbps

Video
ID                                       : 256 (0x100)
Menu ID                                  : 1 (0x1)
Format                                   : AVC
Format/Info                              : Advanced Video Codec
Format profile                           : High@L4.0
Format settings, CABAC                   : Yes
Format settings, ReFrames                : 1 frame
Codec ID                                 : 27
Duration                                 : 45mn 14s
Width                                    : 1 920 pixels
Height                                   : 1 080 pixels
Display aspect ratio                     : 16:9
Frame rate mode                          : Variable
Color space                              : YUV
Chroma subsampling                       : 4:2:0
Bit depth                                : 8 bits
Scan type                                : Progressive
Color primaries                          : BT.709-5, BT.1361, IEC 61966-2-4, SMPTE RP177
Transfer characteristics                 : BT.709-5, BT.1361
Matrix coefficients                      : BT.709-5, BT.1361, IEC 61966-2-4 709, SMPTE RP177

Audio
ID                                       : 257 (0x101)
Menu ID                                  : 1 (0x1)
Format                                   : AAC
Format/Info                              : Advanced Audio Codec
Format version                           : Version 4
Format profile                           : LC
Muxing mode                              : ADTS
Codec ID                                 : 15
Duration                                 : 45mn 14s
Bit rate mode                            : Variable / Variable / Variable
Minimum bit rate                         : 113 Kbps / 113 Kbps
Maximum bit rate                         : 170 Kbps / 170 Kbps
Channel(s)                               : 2 channels
Channel positions                        : Front: L R
Sampling rate                            : 48.0 KHz
Compression mode                         : Lossy
Delay relative to video                  : 7ms

Ari Up - Rebellion Festival, Winter Gardens, Blackpool, UK - 11.08.2007 (DVD)






Thanks to Anon for sending me this video to share here.

Original Info File:

*Special huge thanks to P.J. Peanutz for mailing me this show!
*Filmed by Mic and P.J. Peanutz
*Uploaded to Dime in late 2010, lost forever since to obscurity and evil bootleg sellers.


SETLIST
01. Sound Check
02. Instant Hit
03. Baby Mother
04. World of Grown-Ups
05. Problems
06. Fade Away
-
07. Crew War
08. Shoplifting
09. Conquer
10. Earthbeat
11. Allergic
12. Love and Romance
13. Typical Girls


LINEUP
Vocals: Ari Up (Ariane Forster)
Bass: Ira Heaps (of Jammyland All-Stars)
Trombone, Melodica, Various percussion: King Django (Jeff Baker)
Electric guitar:  unknown
Drums: unknown


AUDIO
A52 Audio (aka AC3)
Channels: Stereo
Sample rate: 48000 Hz
Bitrate: 256 kb/s

VIDEO
Codec: MPEG-1/2 Video (mpgv)
Resolution: 720x576
Aspect ratio: 4:3
Frame rate: 25
Bitrate: vbr ~4379 kb/s


RE-UPLOAD: The Chameleons - Werk II, Arnsberg, Germany - 23.11.2002 (Flac)


Thanks to trebor for sharing this recording on Dime.

Last concert with the original members

A must to have for any Chameleons fan !

Great stereo recording !


The Band:

Mark Burgess: vox, bass
Reg Smithies: guitar
Dave Fielding: guitar
John Lever: drums


Mixing Desk > ? > DAT > ? > Flac
1 track in Flac (587 Mo) downloaded from the web (Tarquin Live !)
Taper: unknown
Gear: unknown

Thanks a lot for taping and sharing this great recording !

Spectrogram analysis OK with SoundForgePro
Frequency and Spectrogram analysis OK with EAC

trebor post production: volume adjusted for all the tracks: + 0,83 dB, volume and/or balance adjusted for tracks 01-08 & 14-21, tracks edited and created with SoundForgePro (in wav)
Tracks in wav --> Flac 8 and .ffp with Trader's Little Helper



Setlist:


01. Intro
02. Swamp Thing
03. A Person Isn't Safe Anywhere These Days
04. Pleasure And Pain
05. Here Today
06. Return Of The Roughnecks
07. Less Than Human
08. Dangerous Land
09. Intrigue In Tangiers
10. Anyone Alive
11. Indiana
12. Tears
13. Soul In Isolation
14. Perfume Garden
15. Caution
16. Thanks/Comments
17. Second Skin
18. Encore
19. Monkeyland
20. Don't Fall
21. Splitting In Two (Alternative TV Cover) / Love Will Tear Us Apart (Snippet - Joy Division Cover)


Total Time: 1:53:39


Do not sell this recording.
Don't convert it to mp3 or other lossy formats except for your own personal use.
Please support The Chameleons (Vox) / Mark Burgess by buying their / his albums, merch, and by going to see them / him live.


Mastered and uploaded by trebor on Dimeadozen, January 17, 2012.

Enjoy !

RE-UPLOAD: Amorphis - Wave Gotik Treffen, Kohlrabizirkus, Leipzig, Germany - 26.05.2012 (Flac)

Photo: Chris

Thanks to Chris for sending me his recording to share here, the first of various from this edition of WGT that we will post here in DCR.



Taper: C.F. (Chris)
Gear: Sony ICD-SX850

Lineage: Wav -> Audacity -> TLH -> Flac (Level 8)


Setlist:

01. Intro
02. Sky Is Mine
03. Towards and Against
04. Against Widows
05. Crack in a Stone
06. You I Need
07. Vulgar Necrolatry
09. Into Hiding
10. Majestic Beast
11. Mermaid
12. The Castaway
13. Alone
14. (audience)
15. Silver Bride
16. My Kantele
17. House of Sleep

Do Not Sell!
Support the artists by buying official records and merchandise!
Do Not convert to lossy formats unless for personal use.
Enjoy!

Saturday, 9 April 2016

Fields Of The Nephilim - Essigfabrik, Cologne, Germany - 19.03.2016 (MP3)



Thanks to Chris for sending me his recording to share here. 

Setlist:

Dawnrazor
Moonchild
For Her Light
Love Under Will
From The Fire
Zoon Pt 3
Psychonaut
Equinox
Prophecy
(encore 1)
Last Exit For The Lost
(encore 2)
Mourning Sun

The Slits - Init, Rome, Italy - 23.05.2010 (Flac 24/96)



Thanks to Anon for sending me this recording to share here.

Setlist:

1 Newtown
2 World Of Grownups
3 Shoplifting
4 Vindictive
5 Grapevine
6 Fade Away
7 Typical Girls
8 Lazy Slam
9 Cry Baby
10 FM
11 Reject
12 Partner from Hell
13 Babylon*

*performed by Honey Child

Lineage: Sony ECM-MS907 -> Olympus LS-10 (24 bit - 48 kHz) -> CD Wave -> Flac frontend (level 6) -> Flac

Recorded and mastered by Todtap
www.myspace.com/todtap


Shriekback - The Tube, Tyne Tees, Newcastle Upon Tyne, UK - 09.11.1984







Huge Thanks to the anonimous collaborator for sendingme this video to share here.

Lineage: VHS(0) -> Panasonic NV-HS860 -> EZCAP With Arcsoft Showbiz -> MPEG2

Tracklist:
Whiteout
Suck

Time: 8.12m

ormat                                   : MPEG-PS
File size                                : 312 MiB
Duration                                 : 8mn 12s
Overall bit rate mode                    : Variable
Overall bit rate                         : 5 317 Kbps
Writing library                          : ArcSoft MPEG-2 PAL

Video
ID                                       : 224 (0xE0)
Format                                   : MPEG Video
Format version                           : Version 2
Format profile                           : Main@Main
Format settings, BVOP                    : Yes
Format settings, Matrix                  : Custom
Format settings, GOP                     : M=3, N=10
Format settings, picture structure       : Frame
Duration                                 : 8mn 12s
Bit rate mode                            : Variable
Bit rate                                 : 4 987 Kbps
Maximum bit rate                         : 7 500 Kbps
Width                                    : 720 pixels
Height                                   : 576 pixels
Display aspect ratio                     : 4:3
Frame rate                               : 25.000 fps
Standard                                 : PAL
Color space                              : YUV
Chroma subsampling                       : 4:2:0
Bit depth                                : 8 bits
Scan type                                : Interlaced
Scan order                               : Top Field First
Compression mode                         : Lossy
Bits/(Pixel*Frame)                       : 0.481
Time code of first frame                 : 00:00:00:00
Time code source                         : Group of pictures header
GOP, Open/Closed                         : Closed
Stream size                              : 293 MiB (94%)
Writing library                          : ArcSoft MPEG-2 PAL
Color primaries                          : BT.601 PAL
Transfer characteristics                 : BT.470 System B, BT.470 System G
Matrix coefficients                      : BT.601

Audio
ID                                       : 192 (0xC0)
Format                                   : MPEG Audio
Format version                           : Version 1
Format profile                           : Layer 2
Duration                                 : 8mn 11s
Bit rate mode                            : Constant
Bit rate                                 : 224 Kbps
Channel(s)                               : 2 channels
Sampling rate                            : 48.0 KHz
Compression mode                         : Lossy
Delay relative to video                  : -6ms
Stream size                              : 13.1 MiB (4%)

The Danse Society - The Tube, Tyne Tees, Newcastle Upon Tyne, UK - 23.03.1984 (MPG)








Huge Thanks to the anonimous collaborator for sending me this video to share here.

Lineage: VHS(1) -> Panasonic NV-HS860 -> EZCAP With Arcsoft Showbiz -> MPEG2


Tracklist:
Heaven Is Waiting
2000 Light Years From Home

Format                                   : MPEG-PS
File size                                : 228 MiB
Duration                                 : 7mn 24s
Overall bit rate                         : 4 300 Kbps
Writing library                          : ArcSoft MPEG-2 NTSC

Video
ID                                       : 224 (0xE0)
Format                                   : MPEG Video
Format version                           : Version 2
Format profile                           : Main@Main
Format settings, BVOP                    : Yes
Format settings, Matrix                  : Custom
Format settings, GOP                     : M=3, N=15
Duration                                 : 7mn 24s
Bit rate                                 : 4 096 Kbps
Width                                    : 640 pixels
Height                                   : 480 pixels
Display aspect ratio                     : 4:3
Frame rate                               : 29.970 fps
Standard                                 : NTSC
Color space                              : YUV
Chroma subsampling                       : 4:2:0
Bit depth                                : 8 bits
Scan type                                : Progressive
Compression mode                         : Lossy
Bits/(Pixel*Frame)                       : 0.445
Time code of first frame                 : 00:00:00:00
Time code source                         : Group of pictures header
GOP, Open/Closed                         : Open
Stream size                              : 217 MiB (95%)
Writing library                          : ArcSoft MPEG-2 NTSC
Color primaries                          : BT.470 System M
Transfer characteristics                 : BT.470 System M
Matrix coefficients                      : BT.601

Audio
ID                                       : 192 (0xC0)
Format                                   : MPEG Audio
Format version                           : Version 1
Format profile                           : Layer 2
Duration                                 : 7mn 24s
Bit rate mode                            : Constant
Bit rate                                 : 128 Kbps
Channel(s)                               : 2 channels
Sampling rate                            : 44.1 KHz
Compression mode                         : Lossy
Stream size                              : 6.79 MiB (3%)


Play Dead - Olympia, Norrköping, Sweden - 09.10.1984 (Flac)



Very good sound quality

Lineage:  Cassette Sony UCX60 -> Tapedeck Yamaha KX-493 -> Soundblaster AWE32 -> Wavelab 4.0 -> TLH -> FLAC 6

Tracklist:
01 - The Audience
02 - Break
03 - Return to the East
04 - Torn on Desire
05 - Walk Away
06 - Sin Of Sins
07 - Shine
08 - Solace
09 - Isabel
10 - The Tenant
11 - No Motive
12 - Propaganda

Notes:
Steve Green : Rob Hickson : Pete Waddleton : Mark Smith
More info:
http://www.companyofjustice.com/index.html


Do not sell. Buy the records and go to the shows ! Enjoy !


Electrafixion - Duchess of York, Leeds, UK - 14.11.1994 (Flac)




Huge Thanks to kingrue for sharing on TTD.

Original Info File:

The Stonecutter Collection vol 128

Source: FM broadcast > DAT > 2nd generation cassette (Maxell XL-IIs)

Transfer: Sony TC-WE 475 > gold tipped cables > JVC XL-R2010 CD-RW (44.1)

Editing: Soundforge (tracking) > Wav > TLH [SB's aligned] Flac Level 8

Traders Den 3/31/16.

Transferred and Tracked by kingrue upload 753

.....................................................................


Here's something rare and interesting for all the Echo Bunnymen fans.

Electrafixion were an alternative rock band, formed in 1994 by former Echo & the Bunnymen members

Ian McCulloch and Will Sergeant, joined by bass guitarist Leon de Sylva and drummer Tony McGuigan.

They released one album, 'Burned' and four singles and EPs before splitting up in 1996, due to the reformation of the Bunnymen.

Since this originally came from a DAT, I was able to seamlessly piece the tape flip back together.

There are no tape cuts.

samples provided.


01 Rain On Me
02 Hit By Something
03 Feel My Pulse
04 Who's Been Sleeping In My Head
05 Lowdown
06 Time Bomb
07 Zephyr
08 Mirrorball
09 Burned
10 Pained
11 Bed of Nails
12 Too Far Gone

Total Time = 65:50 min

enjoy

George

The Sundays - Leicester Polytechnic Arena, Leicester, UK 03.12.1992 (Flac)



Huge Thanks to nashspacerocket for sending me his recording to share here.

Audience recording.
Recorded on Sony WM-D3 Pro Walkman, ECM909A mic, TDK SA90 tape.
Taper: nashspacerocket

Edited with audacity to segment tracks, no other processing done.

Tracklist:

01. I Won
02. Can't Be Sure
03. On Earth
04. Medicine
05. My Finest Hour
06. What Do You Think?
07. More
08. Joy
09. God Made Me
10. A Certain Someone
11. Here's Whre The Story Ends
12. Goodbye
13. I Kicked A Boy
14. Love
15. Turkish
16. Hideous Towns

Do Not Sell!
Support the artists and buy offical products.
Enjoy.

RE-UPLOAD: Killing Joke - Alabamahalle, Muenchen, Germany - 25.03.1985 (ProShot DVD)







Brilliant ProShot of KJ live in 1985. Thanks to the original uploader.

Original Info file:

Source : Alabama :DVB-S BR TV Broadcast 14th May 2006
Arte : DVB-S ARTE germany TV Broadcast


DVD Specifications (GSpot):
Alabama :
VIDEO : PAL 4:3 720X576 7830 kbps
AUDIO : ac3 384 kbps
ARTE :
VIDEO : PAL 4:3 720X576 4700 kbps
AUDIO : ac3 256 kbps

track-marked / Basic Menu

Recorded, edited,DVD Authored (February 2011) by AO

Total Running Time : 49:24min (40:37 Alabama + 08:47 Bonus)


Tracklist:

1 Night Time
2 Sun Goes Down
3 Tabazan
4 The Wait
5 Love Like Blood
6 tension
7 Change
8 Pssyche
9 Eighties
10 Wardance

+ Bonus :

21st September 2006 ARTE Tracks