Thursday, 24 September 2015

Savages - Haldern Pop Festival, Rees-Haldern, Germany - 14.08.2015 (HD TS)








Savages are getting better and better. Thanks to the original uploader on Dime.

Original Info File:

(partial HDTV broadcast)

http://savagesband.com/
http://www1.wdr.de/fernsehen/kultur/rockpalast/videos/extrakonzerte-savages-haldern-pop-fuenfzehn100.html

Source:
Telestar Diginova HD (dvb-s2, WDR HD [Aachen], Astra 19.2°E, 720p, AC3 448 kbps / 48 kHz)
=> USB  => TSDoctor 1.2.171 (trim, join *.ts files)

Date of first broadcast:
2015-05-24, 00:15-02:45

Televised tracks:
01 - Interview
02 - Husbands
03 - Adore

Full setlist:
01. City's Full
02. Shut Up
03. The Answer
04. Sad Person
05. Slowing Down The World
06. I Need Something New
07. Evil
08. Adore *
09. I Am Here
10. Hit Me
11. She Will
12. Husbands *
13. Fuckers

Line-up:
Jehnny Beth - vocals
Gemma Thompson - guitar
Ayse Hassan - bass
Fay Milton - drums

Mediainfo:
General
ID                                       : 1111 (0x457)
Complete name                            : savages-haldern-20150814-wdr2hd-rockpalast-dvbs2.ts
Format                                   : MPEG-TS
File size                                : 687 MiB
Duration                                 : 11mn 40s
Overall bit rate mode                    : Variable
Overall bit rate                         : 8 227 Kbps

Video
ID                                       : 5601 (0x15E1)
Menu ID                                  : 28544 (0x6F80)
Format                                   : AVC
Format/Info                              : Advanced Video Codec
Format profile                           : High@L4.0
Format settings, CABAC                   : Yes
Format settings, ReFrames                : 4 frames
Codec ID                                 : 27
Duration                                 : 11mn 40s
Bit rate                                 : 6 980 Kbps
Width                                    : 1 280 pixels
Height                                   : 720 pixels
Display aspect ratio                     : 16:9
Frame rate                               : 50.000 fps
Color space                              : YUV
Chroma subsampling                       : 4:2:0
Bit depth                                : 8 bits
Scan type                                : Progressive
Bits/(Pixel*Frame)                       : 0.151
Stream size                              : 583 MiB (85%)

Audio #1
ID                                       : 5602 (0x15E2)
Menu ID                                  : 28544 (0x6F80)
Format                                   : MPEG Audio
Format version                           : Version 1
Format profile                           : Layer 2
Codec ID                                 : 3
Duration                                 : 11mn 40s
Bit rate mode                            : Constant
Bit rate                                 : 192 Kbps
Channel(s)                               : 2 channels
Sampling rate                            : 48.0 KHz
Compression mode                         : Lossy
Delay relative to video                  : 53ms
Stream size                              : 16.0 MiB (2%)
Language                                 : German

Audio #2
ID                                       : 5603 (0x15E3)
Menu ID                                  : 28544 (0x6F80)
Format                                   : MPEG Audio
Format version                           : Version 1
Format profile                           : Layer 2
Codec ID                                 : 3
Duration                                 : 11mn 40s
Bit rate mode                            : Constant
Bit rate                                 : 192 Kbps
Channel(s)                               : 2 channels
Sampling rate                            : 48.0 KHz
Compression mode                         : Lossy
Delay relative to video                  : 5ms
Stream size                              : 16.0 MiB (2%)

Audio #3
ID                                       : 5606 (0x15E6)
Menu ID                                  : 28544 (0x6F80)
Format                                   : AC-3
Format/Info                              : Audio Coding 3
Mode extension                           : CM (complete main)
Format settings, Endianness              : Big
Codec ID                                 : 6
Duration                                 : 11mn 40s
Bit rate mode                            : Constant
Bit rate                                 : 448 Kbps
Channel(s)                               : 2 channels
Channel positions                        : Front: L R
Sampling rate                            : 48.0 KHz
Bit depth                                : 16 bits
Compression mode                         : Lossy
Delay relative to video                  : 71ms
Stream size                              : 37.4 MiB (5%)
Language                                 : German




haldernproshot

3 comments:

  1. thank you!!!
    looking forward to new album so much ;)

    ReplyDelete
  2. Thank you so much for this download.

    ReplyDelete