Saturday, 20 February 2016

Bauhaus - University of London, London, UK - 31.10.1980 (MPEG)









A rather excellent upgrade on the previously posted version. Still quite dark and full of effects, but now with much more sharpness to the image. Thanks to the anonimous collaborator.

Lineage: Bootleg VHS -> Panasonic NV-HS860 -> EZCAP With Arcsoft Showbiz -> MPEG2

Setlist

01 Bela Lugosi's Dead
02 In The Flat Field
03 Boys
04 A God In An Alcove
05 Dancing
06 Poison Pen
07 Telegram Sam - Do You Wanna Touch Me
08 Dark Entries

ormat                                   : MPEG-PS
File size                                : 1.05 GiB
Duration                                 : 35mn 7s
Overall bit rate                         : 4 299 Kbps
Writing library                          : ArcSoft MPEG-2 NTSC

Video
ID                                       : 224 (0xE0)
Format                                   : MPEG Video
Format version                           : Version 2
Format profile                           : Main@Main
Format settings, BVOP                    : Yes
Format settings, Matrix                  : Custom
Format settings, GOP                     : M=3, N=15
Duration                                 : 35mn 7s
Bit rate                                 : 4 096 Kbps
Width                                    : 640 pixels
Height                                   : 480 pixels
Display aspect ratio                     : 4:3
Frame rate                               : 29.970 fps
Standard                                 : NTSC
Color space                              : YUV
Chroma subsampling                       : 4:2:0
Bit depth                                : 8 bits
Scan type                                : Progressive
Compression mode                         : Lossy
Bits/(Pixel*Frame)                       : 0.445
Time code of first frame                 : 00:00:00:00
Time code source                         : Group of pictures header
GOP, Open/Closed                         : Open
Stream size                              : 1.00 GiB (95%)
Writing library                          : ArcSoft MPEG-2 NTSC
Color primaries                          : BT.470 System M
Transfer characteristics                 : BT.470 System M
Matrix coefficients                      : BT.601

Audio
ID                                       : 192 (0xC0)
Format                                   : MPEG Audio
Format version                           : Version 1
Format profile                           : Layer 2
Duration                                 : 35mn 7s
Bit rate mode                            : Constant
Bit rate                                 : 128 Kbps
Channel(s)                               : 2 channels
Sampling rate                            : 44.1 KHz
Compression mode                         : Lossy
Stream size                              : 32.2 MiB (3%)



part 1
part 2

2 comments:

  1. Thank you for this one, circle!

    ReplyDelete
  2. This video is from 1980 or 1984?

    ReplyDelete